枝に結ぶ願い
Akhuta

EXTREME

Level: 9
BPM: 204
Notes: 856

1
口口口口 |----|
口口口口 |----|
口口口口 |----|
口口口口 |----|
2
①口口口 |①---|
口③口口 |②---|
口口口口 |③---|
②④口口 |④---|
3
口口口口 |①---|
口口①口 |②---|
口口口③ |③---|
口口②④ |④---|
4
口口口① |①---|
口②口口 |②---|
口口③口 |③---|
④口口口 |④---|
5
①口口口 |①---|
口口②口 |②---|
口③口口 |③---|
口口口④ |④---|
6
④②①③ |①---|
口口口口 |②---|
口口口口 |③---|
③①②④ |④---|
7
口④③口 |①---|
④②①③ |②---|
②①②① |③---|
③口口④ |④---|
8
②④③① |①---|
口口口口 |②---|
口口口口 |③---|
③①②④ |④---|
9
②口口① |①---|
④③④③ |②---|
②①②① |③---|
口④③口 |④---|
10
口口②口 |①---|
口口口口 |----|
口口口口 |②---|
①口口① |----|
11
口口口口 |①---|
口②口口 |----|
①口口① |②---|
口口口口 |----|
12
口口口口 |①---|
①口口① |----|
口口②口 |②---|
口口口口 |----|
13
①口口① |①---|
口口口口 |----|
口口口口 |②---|
口②口口 |----|
14
③①③① |①---|
①③①③ |②---|
口口口口 |③---|
②④②④ |④---|
15
③①③① |①---|
口口口口 |②---|
③①③① |③---|
②④②④ |④---|
16
③①③① |①---|
③③①① |②---|
口口口口 |③---|
②④②④ |④---|
17
口①③口 |①---|
口③①口 |②---|
③①③① |③---|
②④②④ |④---|
18
③口口① |①---|
③③①① |②---|
③口口① |③---|
②④②④ |④---|
19
口①①③ |①---|
③④④③ |②---|
③口①① |③---|
②口②口 |④---|
20
⑩②⑤口 |①-②-③-|
⑥口⑨⑪ |④-⑤-⑥-|
⑫④口① |⑦-⑧-⑨-|
口⑧③⑦ |⑩-⑪-⑫-|
21
⑫⑥口③ |①-②-③-|
⑧④⑨口 |④-⑤-⑥-|
口⑩①⑤ |⑦-⑧-⑨-|
②口⑦⑪ |⑩-⑪-⑫-|
22
口口⑪⑤ |①-②-③-|
⑩⑥口① |④-⑤-⑥-|
②⑫③⑦ |⑦-⑧-⑨-|
⑧④⑨口 |⑩-⑪-⑫-|
23
⑫②口⑤ |①-②-③-|
口⑧③⑦ |④-⑤-⑥-|
④口口⑪ |⑦-⑧-⑨-|
⑩⑥⑨① |⑩-⑪-⑫-|
24
⑫⑧①⑤ |①-②-③-|
口口⑦⑪ |④-⑤-⑥-|
④②⑨口 |⑦-⑧-⑨-|
⑩⑥口③ |⑩-⑪-⑫-|
25
口口③口 |①-②-③-|
⑥④口口 |④-⑤-⑥-|
口②口① |⑦---|
口⑦⑦⑤ |----|
26
口口口口 |①---|
口②口口 |----|
①口口口 |②---|
口口口口 |----|
27
口口口口 |①---|
口口口② |----|
口口①口 |②---|
口口口口 |----|
28
①⑤⑨⑬ |①②③④|
②⑥⑩⑭ |⑤⑥⑦⑧|
③⑦⑪⑮ |⑨⑩⑪⑫|
④⑧⑫⑯ |⑬⑭⑮⑯|
29
①⑤⑨⑬ |①②③④|
②⑥⑩⑭ |⑤⑥⑦⑧|
③⑦⑪⑮ |⑨⑩⑪⑫|
④⑧⑫⑯ |⑬⑭⑮⑯|
30
口口口口 |----|
口口口口 |----|
口口口口 |----|
口口口口 |----|
31
口①口口 |----|
①口口口 |----|
口口口口 |①---|
口口口口 |----|
32
口口口口 |①---|
口口①口 |②---|
口②口③ |③---|
口口③口 |----|
33
①口口① |①---|
口口口口 |②---|
口口口口 |----|
②口口② |----|
34
①口口口 |----|
口口口口 |----|
口口口口 |①---|
口②口口 |②---|
35
口口口② |①---|
口口口口 |②---|
口口口口 |③---|
③口①③ |----|
36
口②口口 |①---|
口口①口 |②---|
口①口口 |----|
口口②口 |----|
37
口⑥口口 |----|
⑩⑫⑨⑤ |①②③④|
④③②① |⑤⑥⑦⑧|
口⑧⑪⑦ |⑨⑩⑪⑫|
38
②④①① |①---|
口口口⑥ |②-③-|
③口⑥⑥ |④-⑤-|
③⑤口口 |⑥---|
39
口口③① |①-②-|
口⑤③口 |③-④-|
⑦⑤口口 |⑤-⑥-|
⑦⑥④② |⑦---|
40
①①④② |①---|
⑥口口口 |②-③-|
⑥⑥口③ |④-⑤-|
口口⑤③ |⑥---|
41
①③口口 |①-②-|
口③⑤口 |③-④-|
口口⑤⑦ |⑤-⑥-|
②④⑥⑦ |⑦---|
42
口④①① |①---|
③口口口 |②---|
口口口口 |③---|
②口口口 |④---|
43
口口口口 |①---|
口口口③ |--②-|
②口口口 |----|
口口①口 |③---|
44
口口口口 |①---|
口②②口 |--②-|
③口口③ |----|
口①①口 |③---|
45
口①①② |①---|
①③②① |--②-|
③②口③ |----|
②口③口 |③---|
46
④口③口 |①-②-|
⑥口⑦口 |③-④-|
⑧口⑤口 |⑤-⑥-|
口②口① |⑦-⑧-|
47
口③口④ |①-②-|
口⑦口⑥ |③-④-|
口⑤口⑧ |⑤-⑥-|
①口②口 |⑦-⑧-|
48
口③③口 |①---|
口口口口 |--②-|
①口②口 |----|
口①口② |③---|
49
①口④④ |①---|
①口口口 |②---|
口口口③ |③---|
②②口③ |④---|
50
口口口⑦ |①-②-|
②⑤④⑧ |③-④-|
①⑥口口 |⑤-⑥-|
口口③口 |⑦-⑧-|
51
口⑥③口 |①-②-|
②⑤④⑧ |③-④-|
口口口口 |⑤-⑥-|
①口口⑦ |⑦-⑧-|
52
⑤口③⑥ |①-②-|
②⑦⑦口 |③-④-|
口④④口 |⑤-⑥-|
口①①口 |⑦---|
53
④③②④ |--①-|
③口口② |②---|
口口口口 |③---|
口①①口 |④---|
54
⑯⑮⑭⑬ |①②③④|
⑫⑪⑩⑨ |⑤⑥⑦⑧|
⑧⑦⑥⑤ |⑨⑩⑪⑫|
④③②① |⑬⑭⑮⑯|
55
口口口口 |①---|
口口口口 |----|
口②口口 |②---|
口口口① |----|
56
口②口口 |①---|
口口①口 |----|
口口口口 |②---|
口口口口 |----|
57
口口口口 |①---|
口②②口 |----|
口口口口 |②---|
①口口① |----|
58
①①口③ |①---|
口口口④ |②---|
口口口② |③---|
③③口① |④---|
59
①③③口 |①---|
④②①口 |②-③-|
口①②口 |--④-|
⑥口⑤① |⑤-⑥-|
60
③④⑤② |①---|
口⑩⑥① |②-③④|
口口⑦① |⑤⑥⑦⑧|
口⑨⑧口 |⑨-⑩-|
61
④口口③ |①-②-|
①⑤⑤② |--③-|
④口口③ |--④-|
口口口口 |--⑤-|
62
⑩口口口 |①②③④|
口口口⑤ |⑤---|
⑨⑧⑦⑥ |⑥⑦⑧⑨|
①②③④ |⑩---|
63
口①口① |①---|
①口①口 |②-③-|
④口口⑤ |--④-|
⑥③③② |⑤-⑥-|
64
①口①② |①---|
口①口① |②-③-|
④口口口 |--④-|
⑥③③⑤ |⑤-⑥-|
65
口口⑤⑤ |①②③④|
⑨②①⑧ |⑤---|
⑦④③⑥ |⑥⑦⑧⑨|
口口⑩⑩ |⑩---|
66
口⑦⑤⑤ |①②③④|
口②①⑨ |⑤---|
⑥④③口 |⑥-⑦-|
口口⑧口 |⑧-⑨-|
67
③口口③ |①---|
口①①口 |②-③-|
口⑥②④ |--④-|
①②⑤① |⑤-⑥-|
68
③④⑤口 |①---|
①⑩⑥口 |②-③④|
①口⑦口 |⑤⑥⑦⑧|
口⑨⑧② |⑨-⑩-|
69
③⑤⑤④ |①-②-|
①⑤⑤② |--③-|
④口口③ |--④-|
口口口口 |--⑤-|
70
⑩口口口 |①②③④|
口口口⑤ |⑤---|
⑨⑧⑦⑥ |⑥⑦⑧⑨|
①②③④ |⑩---|
71
口⑥⑥口 |①②③④|
口口口⑤ |⑤-⑥-|
⑦口口⑦ |----|
①②③④ |⑦---|
72
①⑤⑤③ |①---②-|
口①③口 |--③---|
口②④口 |④---⑤-|
⑥④②⑥ |--⑥---|
73
①口口① |----|
②①①⑤ |①---|
①口口① |②-③-|
口③④口 |④-⑤-|
74
③口口③ |--①-|
口口口口 |②-③-|
口①②口 |----|
④口口④ |④---|
75
口①①口 |----|
③①①⑤ |①---|
①②④① |②-③-|
口口口口 |④-⑤-|
76
②口口① |--①-|
口⑤④口 |②-③-|
口口口口 |--④-|
口③③口 |⑤---|
77
口④①口 |①-②-|
④⑧口① |③-④-|
口③②口 |⑤-⑥-|
⑦⑤⑥⑦ |⑦-⑧-|
78
口④①口 |①-②-|
④⑧口① |③-④-|
口③②口 |⑤-⑥-|
⑦⑤⑥⑦ |⑦-⑧-|
79
②⑥④③ |①-②-|
⑥口①④ |③---|
②⑤口③ |④-⑤-|
口口⑤口 |--⑥-|
80
⑦口⑫④ |①---|
⑬③⑩⑥ |②③④⑤|
⑤⑪①⑧ |⑥⑦⑧⑨|
⑨①口② |⑩⑪⑫⑬|
81
口口口③ |①---|
⑥②口④ |②-③-|
③口②口 |--④-|
⑤①①口 |⑤-⑥-|
82
③④⑤口 |①---|
口⑩⑥口 |②-③④|
口②⑦① |⑤⑥⑦⑧|
口⑨⑧① |⑨-⑩-|
83
④⑤⑤③ |①-②-|
①⑤⑤② |--③-|
口③④口 |--④-|
口口口口 |--⑤-|
84
⑩口口口 |①②③④|
口口口⑤ |⑤---|
⑨⑧⑦⑥ |⑥⑦⑧⑨|
①②③④ |⑩---|
85
口⑥⑥口 |①②③④|
口⑦⑦⑤ |⑤-⑥-|
口口口口 |----|
①②③④ |⑦---|
86
②②②② |①---|
口口口口 |----|
①口口① |②---|
口口口口 |----|
87
口口口口 |----|
口口①口 |----|
口口口口 |①---|
口口口口 |----|
88
口口③③ |①---|
口口口口 |--②-|
口②口口 |----|
①①①① |③---|
89
①口口口 |----|
口口②口 |①---|
③口口口 |②---|
口口口口 |③---|
90
口口③③ |①---|
口②口口 |--②-|
口口口口 |----|
口口①① |③---|
91
口口口口 |--①-|
口口⑥口 |②-③-|
⑦④口② |④-⑤-|
口③⑤① |⑥-⑦-|
92
①①③③ |①---|
口口口口 |--②-|
口口口口 |----|
口口口② |③---|
93
口口口③ |----|
口②①口 |①---|
口①②口 |②---|
③口口口 |③---|
94
①②②口 |①---|
口口口口 |----|
口口口口 |----|
口口口① |②---|
95
③口口③ |①---|
口口口口 |--②-|
②口口② |----|
口①①口 |③---|
96
口口①口 |①-②③|
口口口口 |④-⑤⑥|
口口⑥⑤
②③④口

口口⑫⑪
⑧⑨⑩口
口⑦口口 |⑦-⑧⑨|
口口口口 |⑩-⑪⑫|
97
⑦①口口 |①-②③|
口口口口 |④-⑤-|
⑤⑨⑥口 |⑥-⑦-|
②③④⑧ |⑧-⑨-|
98
⑫④③⑪ |①②③④|
②⑧⑦① |⑤⑥⑦⑧|
⑥⑯⑮⑤ |⑨⑩⑪⑫|
⑭⑩⑨⑬ |⑬⑭⑮⑯|
99
⑫④③⑪ |①②③④|
②⑧⑦① |⑤⑥⑦⑧|
⑥口口⑤ |⑨⑩⑪⑫|
口⑩⑨⑬ |⑬---|
100
口②③口 |①---|
口⑤⑤口 |②-③-|
③①①② |--④-|
口④④口 |--⑤-|
101
②口口① |--①-|
口口口口 |②---|
③⑤④口 |----|
①口口② |③-④-⑤-|
102
⑥④⑤口 |①-②-③-|
口②①③ |④-⑤-⑥-|
⑩口口口 |⑦-⑧-⑨-|
口⑧⑦⑨ |⑩---|
103
口口口③ |①---|
②④①⑤ |②-③-|
⑤①④② |--④-|
③口口口 |--⑤-|
104
①①②口 |--①-|
口口②口 |②---|
口②口口 |----|
口②①① |----|

不確定度: 0

最終更新:2014年12月11日 23:11