とまどい→レシピ
みかくにんぐッ!

EXTREME

Level: 8
BPM: 170
Notes: 574

1
口口口口 |----|
口口口口 |----|
口口口口 |----|
口口口口 |----|
2
①口口① |①---|
②④④② |②---|
③口口③ |③---|
口口口口 |--④-|
3
④口口③ |--①-|
⑥口口⑤ |--②-|
口①①口 |③-④-|
口②②口 |⑤-⑥-|
4
口①①口 |①---|
④②②④ |②---|
口③③口 |③---|
口口口口 |--④-|
5
口④③口 |--①-|
口口口口 |--②-|
①⑥⑤① |③-④-|
②口口② |⑤-⑥-|
6
①口口① |①---|
②④④② |②---|
③口口③ |③---|
口口口口 |--④-|
7
④口口③ |--①-|
⑥口口⑤ |--②-|
口①①口 |③-④-|
口②②口 |⑤-⑥-|
8
④口口④ |①---|
口①①口 |②---|
口②②口 |③---|
口③③口 |--④-|
9
口口口口 |--①-|
①⑤③① |--②-|
②口口② |③-④-|
口④⑥口 |⑤-⑥-|
10
①⑤⑤① |①---|
②口口② |②---|
③口口④ |③-④-|
口③④口 |--⑤-|
11
⑤口口③ |--①-|
口①①口 |--②-|
④②②⑥ |③-④-|
口口口口 |⑤-⑥-|
12
⑤①①口 |①---|
口②②口 |②---|
口③④口 |③-④-|
③口口④ |--⑤-|
13
口口口① |①---|
口口①① |--②-|
②口口口 |----|
②②口口 |----|
14
①⑤⑤① |①---|
②口口② |②---|
③口口④ |③-④-|
口③④口 |--⑤-|
15
⑤口口③ |--①-|
口①①口 |--②-|
④②②⑥ |③-④-|
口口口口 |⑤-⑥-|
16
⑦④③口 |①-②-|
①①①① |③-④-|
⑧⑨口口 |⑤-⑥-|
口②⑥⑤ |⑦-⑧⑨|
17
口⑥口③ |①-②-|
⑥口口口 |③-④-|
口口①⑤ |⑤-⑥-|
②④口口 |----|
18
口口口口 |①---|
口口口⑤ |②---|
口口口④ |③---|
①②③口 |④-⑤-|
19
①口口口 |--①-|
口②口⑥ |②-③-|
③口口口 |④-⑤-|
⑤④口口 |--⑥-|
20
口口口口 |①---|
②⑥口口 |②-③-|
口①⑤③ |--④-|
口④口口 |⑤-⑥-|
21
口④⑤① |①---|
④口口⑤ |②---|
口口口③ |③---|
②口口口 |④-⑤-|
22
③口口口 |--①-|
口④口口 |②-③-|
①口⑤② |--④-|
口①②口 |--⑤-|
23
口口口口 |--①-|
④口④口 |②---|
口③口③ |③---|
②口②① |④---|
24
口①④① |①---|
口②口④ |--②-|
②口口③ |③---|
口口③口 |--④-|
25
口口口口 |①-②-|
①口口口 |③-④-|
口①④口
口口③②

⑥口⑦⑦
口⑤⑦⑦
⑦⑦口口 |⑤-⑥-|
⑦⑦口口 |⑦---|
26
口口口口 |①---|
⑤口口口 |②---|
④口口口 |③---|
口③②① |④-⑤-|
27
口口口① |--①-|
⑥口②口 |②-③-|
口口口③ |④-⑤-|
口口④⑤ |--⑥-|
28
口口口口 |①---|
口口⑤② |②-③-|
③口①口 |--④-|
口④④口 |--⑤-|
29
①⑤④口 |①---|
⑤口口④ |②---|
③口口口 |③---|
口口口② |④-⑤-|
30
口口口口 |--①-|
口口口口 |②---|
②口口① |----|
③②①④ |③-④-|
31
口④口口 |①-②-|
口③口④ |③-④-|
④①②口
口口④口

⑥口⑤⑥
⑤口口口
口⑥⑥⑤ |--⑤-|
口⑤口口 |--⑥-|
32
口④⑧口 |①-②-|
口③⑦口 |③-④-|
②口口⑥ |⑤-⑥-|
①口口⑤ |⑦-⑧-|
33
①口口② |①-②-|
③口口④ |③-④-|
⑦⑤口⑥ |⑤-⑥-|
⑦口口⑥ |⑦---|
34
⑤①①① |①---|
②②②口 |②---|
口③③③ |③---|
④④④口 |④-⑤-|
35
口⑤⑥口 |①-②-|
④③②① |③-④-|
口口口口 |--⑤-|
口口口口 |⑥---|
36
口口口⑤ |①---|
口④口口 |②-③-|
①口③① |④---|
⑥②口口 |⑤-⑥-|
37
④口口⑤ |①-②-|
口⑥口③ |③-④-|
②口⑦口 |--⑤-|
口口口① |⑥-⑦-|
38
②②口口 |①---|
口口口口 |②-③-|
口口口口
①①口③

口口⑤⑤
口口④口
口口口口 |④---|
⑥口口口 |⑤-⑥-|
39
④口⑤口 |①-②-|
口⑥口① |③-④-|
口③⑦口 |--⑤-|
口口②口 |⑥-⑦-|
40
③口口② |①---|
口口④口 |②---|
口④口口 |③---|
②①口③ |④---|
41
口①①口 |①---|
②⑥口③ |②-③-|
口口⑤口 |--④-|
②④口③ |⑤-⑥-|
42
口④①① |①---|
口口⑤口 |--②-|
②口口③ |③---|
口②③口 |④-⑤-|
43
口口②② |①---|
①口口口 |--②-|
口口口口 |----|
①口③③ |③---|
44
①①口口 |①-②③|
⑧④③② |④-⑤⑥|
⑤⑥⑦口 |⑦-⑧-|
⑫⑪⑩⑨ |⑨⑩⑪⑫|
45
③①①② |①---|
③①①② |②---|
②②③③ |③---|
④口口⑤ |④-⑤-|
46
③⑥②④ |①-②-|
⑤①①口 |--③-|
⑥③④口 |④-⑤-|
口①①口 |--⑥-|
47
④口①④ |①-②-|
口②口口 |③-④-|
口口口①
口③③口

口口口口
⑤⑥口⑤
口口口口 |--⑤-|
⑥口口口 |--⑥-|
48
口⑥口口 |①-②-|
③⑤①④ |--③-|
⑥②口口 |④-⑤-|
口③④① |--⑥-|
49
④口①③ |①---|
②③④② |②-③-|
口④③① |--④-|
③⑤⑤④ |--⑤-|
50
⑤⑦④⑥ |①-②-|
①②口① |③-④-|
③⑤⑥③ |⑤-⑥-|
口口口口 |--⑦-|
51
口口⑤口 |①-②-|
⑥③④口 |③-④-|
③口⑦④ |--⑤-|
①口②① |⑥-⑦-|
52
口口口口 |①-②-|
口口口口 |③-④-|
③③口口
①口④②

⑦⑦⑦⑦
⑤⑤⑤口
口口⑧口 |⑤-⑥-|
⑧⑥口口 |⑦-⑧-|
53
③口口④ |----|
①口口口 |①-②-|
⑦⑤⑥② |③④⑤⑥|
⑦口口口 |⑦---|
54
③⑥②④ |①-②-|
⑤①①口 |--③-|
⑥③④口 |④-⑤-|
口①①口 |--⑥-|
55
④口①④ |①-②-|
口②口口 |③-④-|
口口口①
口③③口

口口口口
⑤⑥口⑤
口口口口 |--⑤-|
⑥口口口 |--⑥-|
56
口⑥口口 |①-②-|
③⑤①④ |--③-|
⑥②口口 |④-⑤-|
口③④① |--⑥-|
57
④口①③ |①---|
②③④② |②-③-|
口④③① |--④-|
③⑤⑤④ |--⑤-|
58
⑤⑦④⑥ |①-②-|
①②口① |③-④-|
③⑤⑥③ |⑤-⑥-|
口口口口 |--⑦-|
59
口⑤口口 |①-②-|
③口口④ |③-④-|
口③④⑥ |--⑤-|
①⑦②① |⑥-⑦-|
60
③⑦⑤① |①-②-|
⑦③①⑤ |③-④-|
⑧④②⑥ |⑤-⑥-|
④⑧⑥② |⑦-⑧-|
61
口④④② |①---|
口①②③ |②---③-|
口②口③ |④---|
⑤⑤⑤⑤ |⑤---|
62
①⑤⑤① |①---|
②口口② |②---|
③口口④ |③-④-|
口③④口 |--⑤-|
63
⑤口口③ |--①-|
口①①口 |--②-|
④②②⑥ |③-④-|
口口口口 |⑤-⑥-|
64
口口口口 |①---|
①①①① |----|
口口口口 |----|
口①①口 |----|

不確定度: 0

最終更新:2014年12月12日 01:08