バンブーソード・ガール
cosMo@暴走P

ADVANCED

Level: 9
BPM: 208
Notes: 722

1
口口口口 |----|
口口口口 |----|
口口口口 |----|
口口口口 |----|
2
口④⑤口 |①---|
①②③口 |②---|
①②③口 |③---|
口口口口 |④-⑤-|
3
口口口口 |--①-|
口口⑥⑤ |②-③-|
③④口口 |④-⑤-|
口⑦②① |⑥-⑦-|
4
①①②② |①---|
口口口⑤ |②---|
口③④⑤ |③-④-|
口口口口 |--⑤-|
5
口②②口 |--①-|
①④④口 |②---|
①口口口 |③---|
口③③口 |④---|
6
⑥口口⑤ |①-②-|
口口口口 |③-④-|
④⑥⑤③ |⑤---|
②口口① |⑥---|
7
口①①口 |①-②-|
④③②⑦ |③-④-|
口口口⑥ |⑤-⑥-|
口口口⑤ |⑦---|
8
口⑤⑥口 |①-②-|
⑤口口⑥ |③-④-|
口③④口 |⑤---|
口①②口 |⑥---|
9
①⑥口① |①--②|
口⑤口口 |--③-|
②④口② |④-⑤-|
口③③口 |⑥---|
10
⑥口口⑤ |①-②-|
口口口口 |③-④-|
④⑥⑤③ |⑤---|
②口口① |⑥---|
11
口①①口 |①-②-|
④③②⑦ |③-④-|
口口口⑥ |⑤-⑥-|
口口口⑤ |⑦---|
12
口⑤⑥口 |①-②-|
⑤口口⑥ |③-④-|
口③④口 |⑤---|
口①②口 |⑥---|
13
①⑥口① |①--②|
口⑤口口 |--③-|
②④口② |④-⑤-|
口③③口 |⑥---|
14
口口①口 |--①-|
⑦口口② |②-③-|
⑥口口③ |④-⑤-|
口⑤④口 |⑥-⑦-|
15
⑥④③⑤ |①---|
口②①口 |②---|
口②①口 |③-④-⑤-|
口口口口 |⑥---|
16
口口口口 |①---|
②口口① |----|
②口口① |②---|
口口口口 |----|
17
口⑤⑥口 |①---|
口口①④ |--②-|
口③①口 |③-④-|
口口②口 |⑤-⑥-|
18
口口口④ |①---|
①③口④ |--②-|
①口②口 |③---|
口口口口 |④---|
19
口口口口 |①---|
①口口口 |--②-|
①口口口 |③---|
口③②口 |----|
20
口口口口 |①---|
口③⑤口 |--②-|
口④②口 |③---|
①口口口 |④-⑤-|
21
③①口② |①---|
口口口口 |--②-|
口口口口 |③---|
口④⑤口 |④-⑤-|
22
③④口口 |①---|
口口②口 |--②-|
口①口口 |----|
口口口口 |③-④-|
23
口口①口 |①--②|
口口口② |--③-|
口③④口 |④---|
口口口口 |----|
24
口口口口 |①-②-|
①②口⑧ |③-④-|
⑥口口⑦ |⑤-⑥-|
⑤口④③ |⑦-⑧-|
25
口①②口 |①-②-|
③⑧④口 |③-④-|
口口⑦口 |⑤-⑥-|
口⑤口⑥ |⑦-⑧-|
26
口口口① |①-②-|
③口口② |③-④-|
④⑧⑦口 |⑤-⑥-|
口⑥⑤口 |⑦-⑧-|
27
口②①① |①---|
口口③口 |--②-|
口口口口 |③---|
口口口口 |----|
28
口⑥口⑤ |①---|
口口口④ |--②-|
口口口③ |③-④-|
口①①② |⑤-⑥-|
29
④口⑤口 |①-②-|
③⑥⑦口 |③-④-|
②口口口 |⑤---|
①口口口 |⑥-⑦-|
30
口口口口 |①---|
口口口口 |--②-|
口①口口 |----|
③口②口 |③---|
31
④③③④ |①--②|
口②②口 |--③-|
口①①口 |④---|
⑤口口⑤ |⑤---|
32
口③③口 |①-②-|
②口口① |--③-|
口②①⑥ |--④-|
口口④⑤ |⑤-⑥-|
33
①⑥口② |①-②-|
口口⑦口 |③-④-|
⑤口口口 |⑤---|
④③口口 |⑥-⑦-|
34
口口②口 |①-②-|
口①⑦口 |--③-|
口⑤口③ |④-⑤-|
⑥口④口 |⑥-⑦-|
35
⑤①口口 |①---|
口④口口 |----|
口口③口 |②-③-|
口口口② |④-⑤-|
36
口口口① |①--②|
口口口② |--③-|
口⑥⑦③ |④-⑤-|
口④⑤口 |⑥-⑦-|
37
①④④口 |①--②|
②⑤⑤口 |--③-|
③口口口 |④---|
口口口口 |⑤---|
38
①口口① |①--②|
②⑥⑤② |--③-|
③口口③ |④---|
口④④口 |⑤-⑥-|
39
口②③口 |①---|
口口口口 |--②-|
口④①口 |③---|
口口口口 |--④-|
40
口口口① |①--②|
口口口② |--③-|
口口⑥③ |--④-|
口⑤④口 |⑤-⑥-|
41
口①②口 |①-②-|
口③④口 |③-④-|
口⑤口口 |⑤---|
⑥⑦口口 |⑥-⑦-|
42
口③⑤口 |①-②-|
口④⑥口 |--③-|
⑦口口口 |④-⑤-|
口口①② |⑥-⑦-|
43
口口口口 |①---|
口口口口 |----|
口口口① |②-③-|
⑤③④② |④-⑤-|
44
口④⑤① |①--②|
口⑥⑦② |--③-|
口口口③ |④-⑤-|
口口口口 |⑥-⑦-|
45
①口口口 |①--②|
②口口口 |--③-|
③口口口 |④---|
口④④口 |----|
46
①口口① |①--②|
②口口② |--③-|
③⑥口③ |--④-|
口④⑤口 |⑤-⑥-|
47
②口口② |①---|
③口口③ |----|
④口①④ |②--③|
口口口口 |--④-|
48
④②①③ |①---|
口⑤⑤口 |②---|
口口口口 |③---|
③①②④ |④-⑤-|
49
口⑤⑤口 |--①-|
②口口① |②-③-|
②④③① |④-⑤-|
⑥④③⑥ |⑥---|
50
①口口④ |①-②-|
⑤②③⑧ |③-④-|
⑥口口⑦ |⑤-⑥-|
口口口口 |⑦-⑧-|
51
口口口口 |①-②-|
口口口口 |③-④-|
口②①口 |----|
④口口③ |----|
52
④②①③ |①---|
口⑤⑤口 |②---|
口口口口 |③---|
③①②④ |④-⑤-|
53
口⑤⑤口 |--①-|
②口口① |②-③-|
②④③① |④-⑤-|
⑥④③⑥ |⑥---|
54
①口口① |①---|
口②③口 |②-③-|
口④⑤口 |④-⑤-|
口⑥⑦口 |⑥-⑦-|
55
口①②口 |①---|
①口④② |②---|
口⑤口口 |③-④-|
③口⑥③ |⑤-⑥-|
56
①口口① |①--②|
②④⑥② |--③-|
③⑦⑤③ |④-⑤-|
口口口口 |⑥-⑦-|
57
④②①③ |①---|
口⑤⑤口 |②---|
口口口口 |③---|
③①②④ |④-⑤-|
58
口⑤⑤口 |--①-|
②口口① |②-③-|
②④③① |④-⑤-|
⑥④③⑥ |⑥---|
59
口口口① |①-②-|
口⑤②口 |③-④-|
③⑧口④ |⑤-⑥-|
口⑦⑥口 |⑦-⑧-|
60
口口①口 |①-②-|
②⑦⑧③ |③-④-|
⑤口④口 |⑤-⑥-|
口口口⑥ |⑦-⑧-|
61
④②①③ |①---|
口⑤⑤口 |②---|
口口口口 |③---|
③①②④ |④-⑤-|
62
口⑤⑤口 |--①-|
②口口① |②-③-|
②④③① |④-⑤-|
⑥④③⑥ |⑥---|
63
口口口④ |①-②-|
⑦①口② |③-④-|
③口口⑤ |⑤-⑥-|
口⑥⑧口 |⑦-⑧-|
64
口①①口 |①--②|
口②②口 |--③-|
口③③口 |④---|
④口口④ |----|
65
口①①口 |①---|
口口口口 |----|
口口口口 |----|
口口口口 |----|
66
口口口口 |①---|
①口口① |----|
口口口口 |----|
口口口口 |----|
67
口口口口 |①---|
口口口口 |----|
口①①口 |----|
口口口口 |----|
68
口口口口 |①---|
口口口口 |----|
口口口口 |----|
①口口① |----|
69
①②③口 |①--②|
①②③口 |--③-|
口⑥⑤④ |④--⑤|
口⑥⑤④ |--⑥-|
70
口口⑤① |①--②|
口④口③ |--③-|
口⑥口口 |④---|
②口口口 |⑤-⑥-|
71
④④口口 |①--②|
⑤⑤③③ |--③-|
⑥⑥②② |④--⑤|
口口①① |--⑥-|
72
口口③① |①--②|
口口④口 |--③-|
口口口口 |④---|
②⑥⑤口 |⑤-⑥-|
73
⑥口口③ |①--②|
⑤口口② |--③-|
④口口① |④--⑤|
口口口口 |--⑥-|
74
口口③口 |①--②|
口口②口 |--③-|
口④①口 |④---|
口⑥⑤口 |⑤-⑥-|
75
口口口口 |①-②-|
⑧⑥④② |③-④-|
⑦⑤③① |⑤-⑥-|
口口口口 |⑦-⑧-|
76
⑧⑥④② |①-②-|
口口口口 |③-④-|
口口口口 |⑤-⑥-|
⑦⑤③① |⑦-⑧-|
77
口口⑤口 |①---|
口②①口 |②---|
口④③口 |③---|
口口口口 |④-⑤-|
78
②口口① |--①-|
④口口③ |②-③-|
⑥口口⑤ |④-⑤-|
口口口口 |⑥---|
79
口口⑤口 |①---|
口②①口 |②---|
口④③口 |③---|
口口口口 |④-⑤-|
80
②口口① |--①-|
④口口③ |②-③-|
⑥口口⑤ |④-⑤-|
口口口口 |⑥---|
81
口口⑤口 |①---|
口②①口 |②---|
口④③口 |③---|
口口口口 |④-⑤-|
82
②口口① |--①-|
④口口③ |②-③-|
⑥口口⑤ |④-⑤-|
口口口口 |⑥---|
83
口①①口 |①---|
口口②口 |②-③-|
⑦③口⑤ |④-⑤-|
⑥口口④ |⑥-⑦-|
84
⑤①①④ |①--②|
⑦②②⑥ |--③-|
口③③口 |④-⑤-|
口口口口 |⑥-⑦-|
85
口口⑤口 |①-②-|
口③④口 |③-④-|
⑥口⑧口 |⑤-⑥-|
口⑦②① |⑦-⑧-|
86
④口⑦口 |①-②-|
口⑥⑤① |③-④-|
口②口口 |⑤-⑥-|
口口口③ |⑦---|
87
⑬⑭⑮⑯ |①②③④|
⑨⑩⑪⑫ |⑤⑥⑦⑧|
⑤⑥⑦⑧ |⑨⑩⑪⑫|
①②③④ |⑬⑭⑮⑯|
88
口口口口 |①②③④|
⑨口口口 |⑤⑥⑦⑧|
⑤⑥⑦⑧ |⑨---|
①②③④ |----|
89
④③②① |①②③④|
⑧⑦⑥⑤ |⑤⑥⑦⑧|
⑫⑪⑩⑨ |⑨⑩⑪⑫|
⑯⑮⑭⑬ |⑬⑭⑮⑯|
90
④③②① |①②③④|
⑧⑦⑥⑤ |⑤⑥⑦⑧|
⑫⑪⑩⑨ |⑨⑩⑪⑫|
⑯⑮⑭⑬ |⑬⑭⑮⑯|
91
④③②① |①②③④|
⑧⑦⑥⑤ |⑤⑥⑦⑧|
⑫⑪⑩⑨ |⑨⑩⑪⑫|
⑯⑮⑭⑬ |⑬⑭⑮⑯|
92
②③③① |①---|
口口口口 |②---|
口口口口 |③---|
口口口口 |----|
93
口④⑤口 |①---|
①②③口 |②---|
①②③口 |③---|
口口口口 |④-⑤-|
94
口口口口 |--①-|
口口⑥⑤ |②-③-|
③④口口 |④-⑤-|
口⑦②① |⑥-⑦-|
95
①①②② |①---|
口口口⑤ |②---|
口③④⑤ |③-④-|
口口口口 |--⑤-|
96
口②②口 |--①-|
①④④口 |②---|
①④④口 |③---|
口③③口 |④---|

不確定度: 0

最終更新:2014年12月11日 23:13