非公開日誌
みきとP feat.GUMI

EXTREME

Level: 8
BPM: 190
Notes: 694

1
口口口口 |----|
口口口口 |----|
口口口口 |----|
口口口口 |----|
2
口口口口 |①-②-③-|
⑤⑥⑦⑧ |④---|
④③②① |⑤-⑥-⑦-|
口口口口 |⑧---|
3
②①①② |①---|
口口口口 |②---|
口口口口 |③---|
③口口③ |----|
4
口口口口 |①-②-③-|
⑤⑥⑦⑧ |④---|
④③②① |⑤-⑥-⑦-|
口口口口 |⑧---|
5
①②②① |①---|
口口口口 |②---|
口④④口 |③---|
③口口③ |④---|
6
口③②① |①-②-③-|
口⑥⑤④ |④-⑤-⑥-|
口⑨⑧⑦ |⑦-⑧-⑨-|
口⑫⑪⑩ |⑩-⑪-⑫-|
7
③②①口 |①-②-③-|
⑥⑤④口 |④-⑤-⑥-|
口口⑦⑦ |⑦---|
⑧口口口 |⑧---|
8
口⑧①③ |①-②-|
口⑥③① |③-④-|
口④⑤⑦ |⑤-⑥-|
口②口口 |⑦-⑧-|
9
④④④④ |①---|
③③②② |②---|
口②③口 |③---|
①①①① |④---|
10
口口口口 |①-②-|
口口口⑦ |③-④-|
⑧⑥⑤③ |⑤-⑥-|
④②①口 |⑦-⑧-|
11
口⑥⑤③ |①-②-|
④②①⑧ |③-④-|
口口口⑦ |⑤-⑥-|
口口口⑥ |⑦-⑧-|
12
口口口口 |①-②-|
⑦⑧口口 |③-④-|
⑥⑤④口 |⑤-⑥-|
①②③口 |⑦-⑧-|
13
口口②① |①-②-|
⑦口④③ |③-④-|
⑥口口口 |--⑤-|
⑤口口口 |⑥-⑦-|
14
口口口口 |①-②-|
口口⑧⑦ |③-④-|
口④⑤⑥ |⑤-⑥-|
口③②① |⑦-⑧-|
15
③①②口 |①-②-|
①③口⑥ |③---|
口口口⑤ |④-⑤-|
口口口④ |⑥---|
16
口口口口 |①-②-|
⑦⑧口口 |③-④-|
⑥⑤④口 |⑤-⑥-|
①②③口 |⑦-⑧-|
17
口口②① |①-②-|
⑦口④③ |③-④-|
⑥口口口 |--⑤-|
⑤口口口 |⑥-⑦-|
18
⑥口⑦⑤ |①-②-|
⑧口口口 |③-④-|
口④⑦⑤ |⑤-⑥-|
口③②① |⑦-⑧-|
19
②口口① |----|
②口口① |----|
口口口口 |①---|
①口口② |②---|
20
口⑤②口 |①-②-|
口①口口 |③-④-|
⑦⑦①④ |⑤---|
口③⑥口 |⑥-⑦-|
21
①②②口 |--①-|
①口③口 |--②-|
④口③口 |--③-|
口口口口 |--④-|
22
口口⑦口 |①---|
①口⑥口 |②-③-|
口⑤口④ |④-⑤-|
口③口② |⑥-⑦-|
23
③①口口 |--①-|
口口④口 |----|
口口口口 |②---|
口口口② |③-④-|
24
口口⑥② |①-②-|
口③口⑥ |--③-|
①⑤口④ |④---|
口①④口 |⑤-⑥-|
25
②①口③ |--①-|
口②①口 |--②-|
口口口口 |--③-|
口口口④ |--④-|
26
口⑧口口 |①-②-|
口⑦④口 |③-④-|
⑤①⑥③ |⑤-⑥-|
口口②口 |⑦-⑧-|
27
口口①口 |--①-|
口②口口 |----|
口口口口 |----|
口口口口 |②---|
28
①③口口 |①---|
③口口口 |--②-|
口④②口 |③---|
口口口口 |④---|
29
口口口口 |①---|
口口②口 |--②-|
③口④口 |③---|
①③口口 |④---|
30
口口口口 |①---|
口②④口 |--②-|
口口口③ |③---|
口口③① |④---|
31
口口③① |①---|
口④口③ |--②-|
口②口口 |③---|
口口口口 |④---|
32
①③口口 |①---|
③口口口 |--②-|
口④②口 |③---|
口口口口 |④---|
33
口口口口 |①---|
口口②口 |--②-|
③口④口 |③---|
①③口口 |④---|
34
口口口口 |①---|
口②④口 |--②-|
口口口③ |③---|
口口③① |④---|
35
口口③① |①---|
口④口③ |--②-|
口②口口 |③---|
口口口口 |④---|
36
①④口② |①---|
④口口口 |②-③-|
口⑤③口 |④---|
口口口口 |⑤---|
37
②口口口 |①---|
口口③口 |②-③-|
④口⑤口 |④---|
①④口口 |⑤---|
38
口口口口 |①---|
口③⑤口 |②-③-|
口口口④ |④---|
②口④① |⑤---|
39
口口④① |①---|
口口口④ |②-③-|
⑤③口口 |④---|
口⑥口② |⑤-⑥-|
40
②口口口 |①---|
口口口口 |②---|
口⑤①③ |③-④-|
口口④口 |⑤---|
41
口②⑤口 |①-②-|
①⑥③④ |③---|
口口口口 |④-⑤-|
口口口口 |⑥---|
42
口⑧口口 |①-②-|
口⑥⑦口 |③-④-|
①④⑤口 |⑤-⑥-|
口②③口 |⑦-⑧-|
43
口口口① |①-②-|
②④口① |③---|
②口口口 |④---|
口口③⑤ |⑤---|
44
③①③① |①---|
①③①③ |②---|
口口口口 |③---|
④②口口 |④---|
45
③①③① |①---|
口口口口 |②---|
①③①③ |③---|
口④口② |④---|
46
口①口③ |①---|
①②③② |②---|
②③②④ |③---|
③口④口 |④---|
47
②口口口 |①---|
口口口口 |----|
口口口口 |②---|
口口口① |----|
48
口④②口 |①---|
口口口口 |②---|
①③①③ |③---|
③①③① |④---|
49
③口口口 |①---|
②①①② |----|
口②②口 |②---|
②口口② |③---|
50
口④③② |①---|
④③②口 |②---|
口口口① |③---|
口口①口 |④---|
51
口口口口 |①---|
口③口③ |②---|
口①②口 |③---|
①④口④ |④---|
52
①口口口 |----|
口口口口 |①---|
③口口② |②---|
口③②口 |③---|
53
口③③④ |①---|
②③③① |②---|
口②①口 |③---|
口口口口 |④---|
54
①口口口 |①---|
口口口口 |----|
③口口口 |②---|
②口口口 |③---|
55
口③②口 |①---|
①口③② |②---|
口③口③ |③---|
口口口口 |----|
56
①③口口 |①---|
口口口口 |②---|
①③口口 |③---|
口口④② |④---|
57
口⑤①③ |①---|
口口口口 |②---|
口口①③ |③---|
④②口口 |④-⑤-|
58
口口①口 |①---|
③④④② |②---|
口④④口 |③---|
口③②口 |④---|
59
口①①口 |----|
口口口口 |----|
口口口口 |①---|
口口口口 |----|
60
④口口① |①---|
③②口① |②---|
③口口① |③---|
③③③① |④---|
61
口①③① |①---|
口②①④ |②---|
口①③口 |③---|
口口口④ |④---|
62
口口口口 |①---|
①②③④ |②---|
①②③④ |③---|
①②③④ |④---|
63
口②口② |①---|
口口口口 |----|
①口口口 |②---|
口口口口 |----|
64
⑬⑭⑮⑯ |①②③④|
⑨⑩⑪⑫ |⑤⑥⑦⑧|
⑤⑥⑦⑧ |⑨⑩⑪⑫|
①②③④ |⑬⑭⑮⑯|
65
口⑪⑪口 |①②③④|
⑨口口⑩ |⑤⑥⑦⑧|
⑤⑥⑦⑧ |⑨-⑩-|
①②③④ |⑪---|
66
口口⑧④ |①-②-|
口③⑦口 |③-④-|
②⑥口口 |⑤-⑥-|
①⑤口口 |⑦-⑧-|
67
④⑧口口 |①-②-|
口③⑦口 |③-④-|
口口②⑥ |⑤-⑥-|
口口①⑤ |⑦-⑧-|
68
口口①① |①---|
③口口④ |②---|
口口口口 |③---|
③口②④ |④---|
69
③口口③ |①---|
口①②口 |②---|
口②①口 |③---|
口口口④ |④---|
70
口口口口 |①---|
③口口④ |②---|
口口口口 |③---|
③②①④ |④---|
71
①口②口 |①---|
口②口口 |②---|
②口③口 |③---|
口口口口 |----|
72
口①③口 |①---|
①口口③ |②---|
口①③口 |③---|
口④②口 |④---|
73
口口口口 |①---|
口①①口 |②---|
③④口口 |③---|
③口②口 |④---|
74
口口②① |①---|
口③①② |②---|
口④③口 |③---|
④口口口 |④---|
75
口③③③ |----|
口口②② |①---|
口口口① |②---|
口口口口 |③---|
76
口⑧⑦口 |①-②-|
口⑥⑤口 |③-④-|
口④③口 |⑤-⑥-|
口②①口 |⑦-⑧-|
77
②口口① |①-②-|
④口口③ |③-④-|
⑥口口⑤ |⑤-⑥-|
⑧口口⑦ |⑦-⑧-|
78
⑧口口⑦ |①-②-|
⑥口口⑤ |③-④-|
口④③口 |⑤-⑥-|
口②①口 |⑦-⑧-|
79
口②①口 |①-②-|
口③⑤口 |③---|
③④④⑤ |④---|
口③⑤口 |⑤---|
80
⑦口⑧口 |①-②-|
⑤口口⑥ |③-④-|
③口④口 |⑤-⑥-|
①口口② |⑦-⑧-|
81
口①口② |①-②-|
口③④口 |③-④-|
口⑤口⑥ |⑤-⑥-|
口⑦⑧口 |⑦-⑧-|
82
口⑦口⑧ |①-②-|
口⑤口⑥ |③-④-|
③口④口 |⑤-⑥-|
①口口② |⑦-⑧-|
83
①口②口 |①-②-|
③口④口 |③-④-|
口⑤口⑥ |⑤-⑥-|
口⑦口⑧ |⑦-⑧-|
84
①口口口 |①-②-|
③⑤⑧④ |③-④-|
口口⑥口 |⑤-⑥-|
⑦口②口 |⑦-⑧-|
85
①①口口 |①-②-|
口口口④ |③-④-|
③⑤口⑧ |⑤-⑥-|
⑦口⑥② |⑦-⑧-|
86
①①①口 |①-②-|
③⑤②⑥ |③-④-|
口口⑧口 |⑤-⑥-|
⑦口口④ |⑦-⑧-|
87
①①①① |①-②-|
口口②⑥ |③-④-|
③⑤⑧口 |⑤-⑥-|
⑦口口④ |⑦-⑧-|
88
①①①① |①-②-|
①口②⑥ |③-④-|
③⑤口口 |⑤-⑥-|
⑦口⑧④ |⑦-⑧-|
89
口口口口 |①-②-|
口口②口 |③-④-|
③⑤⑧⑥ |⑤-⑥-|
⑦①口④ |⑦-⑧-|
90
①①①① |①-②-|
①口②① |③-④-|
③口口口
口口口④

口口⑧口
口口口口
口⑤口⑥ |⑤-⑥-|
⑦口口口 |⑦-⑧-|
91
⑤口口⑥ |①-②-|
①⑤⑥④ |③-④-|
③⑦⑧口 |⑤-⑥-|
⑦口②⑧ |⑦-⑧-|

不確定度: 0

最終更新:2014年12月11日 23:24