ルービックキューブ
otetsu feat.GUMI

EXTREME

Level: 9
BPM: 140
Notes: 700

1
口口口口 |----|
口口口口 |----|
口口口口 |----|
口口口口 |----|
2
口口口口 |----|
口口口口 |----|
口口口口 |----|
口口口口 |----|
3
口口口口 |----|
口口口口 |----|
口口口口 |----|
口口口口 |----|
4
口口口口 |----|
口口口口 |----|
口口口口 |----|
口口口口 |----|
5
口口口口 |----|
口口口口 |----|
口②①口 |----|
口口口口 |--①②|
6
①⑤⑤① |①--②|
口口口口 |③-④-|
口口⑥② |⑤--⑥|
④⑧⑦③ |⑦-⑧-|
7
①④⑤① |①--②|
⑥口⑦口 |③-④-|
口⑧⑨② |⑤-⑥-|
口口口③ |⑦⑧⑨-|
8
①⑤⑤① |①--②|
⑨④口⑧ |③-④-|
⑥⑦口② |⑤-⑥⑦|
⑨④⑧③ |⑧-⑨-|
9
口④口⑤ |①-②③|
口②③口 |④-⑤-|
口口①⑤
口口口①

口⑪口口
口⑩口口
⑩⑧⑨口 |⑥⑦⑧⑨|
口⑥⑦口 |⑩-⑪-|
10
①⑤⑤① |①--②|
口口口口 |③-④-|
④⑧⑥② |⑤--⑥|
⑧④⑦③ |⑦-⑧-|
11
①④⑤① |①--②|
口⑥口口 |③-④-|
⑦⑧⑨② |⑤-⑥-|
口口口③ |⑦⑧⑨-|
12
①⑤⑤① |①--②|
⑨④口⑧ |③-④-|
⑥⑦口② |⑤-⑥⑦|
⑨④⑧③ |⑧-⑨-|
13
口④口⑤ |①-②③|
口②③口 |④-⑤-|
口口①⑤
口口口①

⑩口口口
口⑩口口
口⑧⑨口 |⑥⑦⑧⑨|
口⑥⑦口 |⑩---|
14
⑤⑤⑤口 |①---|
⑥⑥⑥④ |②-③-|
口②③口 |④--⑤|
①口口① |--⑥-|
15
口口口口 |--①-|
口口口口 |②---|
口①①①
②②②口

口口口③
口④口口
口口口⑤ |--③-|
口口口口 |④-⑤-|
16
口①⑤口 |①-②③|
⑧⑥⑨⑨ |④-⑤⑥|
口口④⑦ |⑦--⑧|
口③②口 |--⑨-|
17
口④口口 |--①②|
⑥⑥⑤口 |③-④-|
口③②口 |⑤--⑥|
口①口口 |----|
18
口⑧口口 |①-②-|
口⑥⑦口 |③-④-|
④口⑤③ |⑤-⑥-|
②口口① |⑦-⑧-|
19
口口口① |--①-|
口②③口 |②-③-|
口口口①
口口口口

④口口⑦
口口口口
④⑥⑤⑦ |④-⑤-|
口口口口 |⑥-⑦-|
20
口口③口 |①-②-|
口④②① |③-④-|
口口口口
口口口口

口口口口
口口⑦⑦
⑥口口口 |⑤-⑥-|
口口⑤口 |--⑦-|
21
口口①③ |--①-|
口口口口 |②-③-|
口②口口
口口口口

口口⑦口
④口口口
口口口⑤ |④-⑤-|
口⑥口口 |⑥-⑦-|
22
口③②口 |----|
③①①② |--①-|
②①①③ |②---|
口②③口 |③---|
23
口⑤口④ |①-②③|
口②口③ |-④-⑤|
口口口口
口口口①

口口⑥口
⑧⑧⑧口
⑧⑦⑧口 |⑥-⑦-|
⑧⑧⑧口 |⑧---|
24
②⑤⑥④ |①-②③|
⑦⑧⑧③ |-④-⑤|
⑧⑧⑧口 |⑥-⑦-|
⑧⑧⑧① |⑧---|
25
口②③① |①-②③|
④⑧⑧口 |-④⑤-|
⑨⑥⑦⑨ |⑥-⑦-|
口⑥⑦⑤ |⑧-⑨-|
26
①③③① |①-②-|
口口口口 |③-④-|
口口口口
②④④②

⑦口口⑦
口⑤⑤口
口⑥⑥口 |⑤⑥-⑦|
口口口口 |----|
27
口②①口 |①--②|
口口口口 |-③④⑤|
①⑤口②
口③④口

⑨口⑨口
口口⑥口
⑨口⑨口 |⑥-⑦-|
⑦口口⑧ |⑧-⑨-|
28
口②口② |①-②-|
③①③① |③-④-|
口②口②
④口口④

⑥口⑥口
口⑦口⑦
⑤口⑤口 |⑤⑥-⑦|
口口口口 |----|
29
②②②② |①--②|
③口④口 |-③-④|
口③口口
①①①①

口口口口
口⑤口口
⑧口口⑧ |⑤-⑥-|
⑦⑦⑥⑥ |⑦-⑧-|
30
①①①① |①---|
口②②口 |----|
口②②口 |②---|
口口口口 |----|
31
⑧口⑤⑨ |①-②③|
口⑥②口 |④-⑤⑥|
口③④⑦ |⑦--⑧|
⑨口①口 |--⑨-|
32
口⑤⑤口 |--①-|
口③④口 |--②-|
①口口② |③-④-|
口口口口 |⑤---|
33
口口⑥⑥ |①---|
⑤⑤口口 |②-③-|
①口④① |④--⑤|
口③②口 |--⑥-|
34
口⑤⑤口 |--①②|
口④③口 |③-④-|
口②①口 |⑤---|
口口口口 |----|
35
口口口① |①②③④|
口口口② |⑤-⑥⑦|
⑦口口③
⑥口⑤④

⑧⑨⑩⑪
口口口口
口口口口 |-⑧⑨⑩|
口⑬⑫口 |⑪-⑫⑬|
36
⑨⑥⑤⑨ |①-②③|
①口口① |④-⑤⑥|
⑨③②⑨ |-⑦⑧-|
④⑦⑧④ |⑨---|
37
口口①口 |①---|
口②①③ |②--③|
口②①口
口②口③

④⑥口口
口⑥⑤口
④⑥⑤口 |--④-|
口口⑤口 |⑤-⑥-|
38
口⑦⑧① |①-②③|
⑥口口⑤ |-④⑤⑥|
④⑨⑨② |-⑦⑧-|
口③口口 |⑨---|
39
口④⑫⑤ |①②③④|
口⑦⑥① |⑤-⑥⑦|
②⑪⑩⑧ |-⑧⑨⑩|
口⑨③口 |⑪-⑫-|
40
①口口① |①---|
③③③③ |②--③|
口口口口 |----|
②④口② |④---|
41
口口③口 |①-②-|
口⑤④口 |③-④⑤|
口②口口
口口①口

口口⑧口
口口口口
⑦口⑥口 |--⑥-|
口口口口 |⑦-⑧-|
42
口口口④ |①-②-|
①口④③ |③-④-|
口①③②
口口②口

⑤⑤口口
⑦口口⑦
⑥口口⑥ |⑤---|
口口口口 |⑥-⑦-|
43
口⑦⑥口 |①②③④|
⑪④③⑩ |⑤-⑥⑦|
⑨口⑤⑧ |-⑧⑨-|
口②①口 |⑩-⑪-|
44
口口口口 |①②③④|
口④③口 |⑤-⑥⑦|
⑦口⑤⑥
口②①口

口⑨⑧口
口口⑩口
口口口口 |-⑧⑨-|
口⑪口口 |⑩-⑪-|
45
②口⑤③ |①-②-|
②口⑧③ |③-④⑤|
④⑦⑥① |-⑥⑦-|
④⑨口① |⑧-⑨-|
46
②②⑤③ |①-②-|
口口口③ |③-④⑤|
④口口口
④口①①

口⑧口口
⑦⑨口口
口⑩⑥口 |-⑥⑦-|
口⑪口口 |⑧⑨⑩⑪|
47
④⑦⑥③ |①②③④|
⑪口口⑩ |⑤-⑥⑦|
⑨口⑤⑧ |-⑧⑨-|
②口口① |⑩-⑪-|
48
口口口口 |①②③④|
口④③⑦ |⑤-⑥⑦|
⑥口⑤口
口②①口

口⑨⑧口
口口⑩口
口口口口 |-⑧⑨-|
口⑪口口 |⑩-⑪-|
49
②口⑤③ |①-②-|
②口口③ |③-④⑤|
④口口①
④口口①

口口口口
⑨口⑧口
口⑦⑥口 |-⑥⑦-|
口口口口 |⑧-⑨-|
50
⑥⑥⑤⑤ |①-②-|
口口⑦⑦ |③-④-|
⑧⑧⑨⑨ |⑤⑥⑦⑧|
④③②① |⑨---|
51
口口②口 |①---|
口②口口 |②---|
口口口口
①口口①

口口口口
口口口口
⑤⑤⑤③ |③--④|
④④④口 |--⑤-|
52
②②②口 |--①-|
口①①① |②---|
口口口口
口口口口

口口口④
口⑤口口
③口口口 |③---|
口③口口 |④-⑤-|
53
口口①口 |①-②-|
⑥⑥②口 |③-④-|
口口④④ |--⑤-|
口③口⑤ |⑥---|
54
口②口口 |①---|
口口③口 |②-③-|
口口口①
口口①口

口口口口
口口口口
口④⑤口 |④-⑤-|
⑥口⑦⑦ |⑥-⑦-|
55
⑥⑤④③ |--①-|
口②①口 |②---|
口口口口 |③-④-|
口口口口 |⑤-⑥-|
56
口口口口 |①--②|
口口①① |--③-|
口口③③
口②口口

口口口口
口⑤④口
口口口口 |--④-|
口口口口 |⑤---|
57
④口口口 |①-②-|
③口口口 |③-④-|
②口口口
①口口口

口⑤口口
口口⑥⑥
⑦⑦口口 |⑤--⑥|
口口口口 |--⑦-|
58
口②①口 |--①-|
口④③口 |②-③-|
⑥口⑦口 |④-⑤-|
口⑤口口 |⑥-⑦-|
59
口口⑤④ |①-②-|
⑥⑦口③ |③-④-|
⑦⑥口② |⑤--⑥|
口口口① |--⑦-|
60
④口口① |--①-|
口⑤②口 |②-③-|
口③⑥口 |④-⑤-|
口口口口 |⑥---|
61
口口口① |①②③④|
口口口② |⑤-⑥⑦|
⑦口口③
⑥口⑤④

⑧⑨⑩⑪
口口口口
口⑬⑫口 |-⑧⑨⑩|
口口口口 |⑪-⑫⑬|
62
⑥口口⑥ |①-②-|
②②①① |③④-⑤|
⑤口口⑤ |--⑥-|
⑦④③⑦ |⑦---|
63
口口①口 |①---|
口②①③ |②--③|
口②①口
口②口③

④⑥口口
口⑥⑤口
④⑥⑤口 |--④-|
口口⑤口 |⑤-⑥-|
64
口⑦⑧① |①-②③|
⑥口口⑤ |-④⑤⑥|
④⑨⑨② |-⑦⑧-|
口③口口 |⑨---|
65
口④⑫⑤ |①②③④|
口⑦⑥① |⑤-⑥⑦|
②⑪⑩⑧ |-⑧⑨⑩|
口⑨③口 |⑪-⑫-|
66
①口口① |①---|
口④③口 |②-③④|
口口口口 |----|
②⑤口② |⑤---|
67
口口③口 |①-②-|
口⑤④口 |③-④⑤|
口②口口
口口①口

口口⑧口
口口口口
⑦口⑥口 |--⑥-|
口口口口 |⑦-⑧-|
68
口口口④ |①-②-|
①口④③ |③-④-|
口①③②
口口②口

⑤⑤口口
口口口⑦
口口口口 |⑤---|
口口口⑥ |⑥-⑦-|
69
口口口口 |①---|
①①①口 |----|
①口①口 |----|
①①①口 |----|

不確定度: 0

最終更新:2014年12月11日 23:24