きょうもハレバレ
ふわりP feat.GUMI's

EXTREME

Level: 8
BPM: 134
Notes: 544

1
口口口口 |----|
口口口口 |----|
口口口口 |----|
口口口口 |----|
2
口口口口 |----|
口口口口 |----|
口口口口 |----|
口口口口 |----|
3
①口②③ |----|
口口④⑤ |--①-|
口口⑥⑦ |②③④⑤|
口口⑧⑨ |⑥⑦⑧⑨|
4
④口⑥⑦ |①-②③|
口①⑧⑨ |-④-⑤|
口⑤口⑩ |⑥⑦⑧⑨|
②③⑪⑫ |-⑩⑪⑫|
5
①②口口 |①②③④|
③④口口 |-⑤⑥⑦|
口⑤口口
⑥⑦口口

⑨⑨口口
口口口口
⑧口⑧口 |⑧---|
口口口口 |⑨---|
6
⑥⑦④口 |①-②③|
⑧⑨口① |-④-⑤|
口⑩口⑤ |⑥⑦⑧⑨|
⑪⑫②③ |-⑩⑪⑫|
7
口口①② |①②③④|
口口③④ |-⑤⑥⑦|
口口口⑤
口口⑥⑦

口口⑨⑨
口口口口
⑧口⑧口 |⑧---|
口口口口 |⑨---|
8
④口⑥⑦ |①-②③|
口①⑧⑨ |-④-⑤|
口⑤口⑩ |⑥⑦⑧⑨|
②③⑪⑫ |-⑩⑪⑫|
9
①②口口 |①②③④|
③④口口 |-⑤⑥⑦|
口⑤口口
⑥⑦口口

⑨⑨口口
口口口口
⑧口⑧口 |⑧---|
口口口口 |⑨---|
10
⑥⑦④口 |①-②③|
⑧⑨口① |-④-⑤|
口⑩口⑤ |⑥⑦⑧⑨|
⑪⑫②③ |-⑩⑪⑫|
11
口口③④ |①②③④|
口口①② |⑤⑥⑦⑧|
口口⑦⑧
口口⑤⑥

口口口口
⑨⑩⑪口
口⑨口口 |⑨---|
口口口口 |⑩-⑪-|
12
口①②口 |①---|
③口⑦口 |②---|
口⑥口④ |③-④⑤|
⑤口口口 |-⑥⑦-|
13
③①②口 |①-②-|
口口口口 |③---|
口口口口 |--④-|
口⑤④⑥ |⑤-⑥-|
14
④⑤口口 |①-②③|
口③口口 |④-⑤-|
①口②口
口口口口

口口⑥口
⑦口口口
⑦口口口 |⑥---|
口⑧口口 |⑦--⑧|
15
口口⑤④ |①-②③|
口口③口 |④-⑤-|
口②口①
口口口口

口⑥口⑧
口⑦口⑦
口口口⑦ |⑥---|
口口口口 |⑦-⑧-|
16
①口口口 |①---|
①口②口 |②---|
口口②口
口口口口

口口口口
⑥口口口
③口口口 |③-④⑤|
③④口⑤ |--⑥-|
17
③②①口 |①-②-|
口口口口 |③---|
口①②③ |--④-|
④⑥⑤口 |⑤-⑥-|
18
⑥⑧⑨⑦ |①-②③|
②⑧⑨⑤ |④-⑤-|
④口口③ |⑥-⑦-|
口口口① |⑧-⑨-|
19
口口口口 |--①-|
口⑤口口 |②---|
口①②④ |--③-|
①③口② |④-⑤-|
20
①①口口 |①---|
口口④口 |--②-|
口③口口 |③---|
口口②口 |④---|
21
口口①① |①---|
口口④② |--②-|
③口口口 |③---|
口口口口 |--④-|
22
口口①① |①---|
口④口口 |--②-|
口口③口 |③---|
口②口口 |④---|
23
①①口口 |①--②|
口⑤②② |--③-|
③③⑤口 |④---|
口口④④ |--⑤-|
24
口③①口 |①---|
②口口④ |--②-|
④口口② |③---|
口①③口 |④---|
25
口口口① |①--②|
口③②口 |--③-|
口②③口
①口口口

④口⑤⑥
口口口⑦
口口口口 |④---|
口口口④ |⑤⑥⑦-|
26
口口口口 |①--②|
口①①口 |-③④-|
口②②④
③口口口

⑤⑥⑩口
⑦⑧口口
口口口口 |⑤⑥⑦⑧|
口口⑨⑨ |⑨--⑩|
27
口口口① |①②③-|
口口②③ |④⑤⑥⑦|
④⑤口口
⑥⑦口口

⑪⑪口⑩
⑨⑨口⑩
口口⑧口 |⑧-⑨-|
口口⑧口 |⑩-⑪-|
28
口口口口 |①--②|
口口口口 |--③-|
①①②②
③③口口

口⑦口口
⑥口④④
口⑤口口 |④-⑤-|
口口口口 |⑥-⑦-|
29
③口口③ |①-②-|
④⑤口④ |③-④⑤|
②口口②
①口口①

口口口口
口口⑥口
口⑥⑦口 |⑥-⑦-|
口⑨口⑧ |⑧-⑨-|
30
④④④④ |①-②-|
口③③口 |③-④-|
口②口②
①口①口

口口口口
⑤口口⑤
口⑦口口 |⑤-⑥-|
口⑥口⑧ |⑦--⑧|
31
⑥口口② |①---|
④口⑥⑤ |②--③|
②口①④ |④-⑤-|
①口③⑦ |⑥--⑦|
32
口口口④ |①-②-|
口口口③ |③--④|
口③①②
口①口口

口⑥⑤口
口⑤⑥口
口口口⑦ |⑤---|
口口口口 |⑥--⑦|
33
口口②② |①---|
口口口口 |②---|
②口①口
①口口口

④口口口
③口口③
口口④④ |③---|
口口口口 |④---|
34
口口口④ |①-②-|
口口③口 |③--④|
口③口口
口①②①

口⑥⑤口
口⑤口口
口口口⑦ |⑤---|
口口⑥口 |⑥--⑦|
35
①口③口 |①--②|
③口①② |③--④|
口口口口
口口④口

口口口⑦
口口⑧口
⑤口⑥口 |⑤-⑥-|
⑦口口⑤ |⑦--⑧|
36
口①②口 |①-②-|
口③口① |③--④|
口口口④
口口口③

口口口⑦
口口口⑥
口⑤⑤口 |⑤---|
口⑥口口 |⑥--⑦|
37
①口①口 |①---|
②口②口 |②---|
③口口③ |③---|
④口④⑤ |④--⑤|
38
②①①② |①-②-|
④③③④ |③--④|
口⑤⑤⑦ |⑤---|
口口口⑥ |⑥-⑦-|
39
⑤口①③ |①---|
④口⑤④ |②-③-|
②口口⑥ |④---|
①口口口 |⑤--⑥|
40
口口口口 |①-②-|
口口口④ |③--④|
口③①口
口①③②

口⑥口口
口⑤⑤口
口口⑥⑦ |⑤---|
口口口口 |⑥-⑦-|
41
口口②① |①---|
口口口③ |②-③-|
②口口口
①口口口

⑤口口⑤
④口④口
口口⑥口 |④---|
口口口口 |⑤--⑥|
42
口口口口 |①-②-|
口口口④ |③--④|
口③口③
口①②①

口⑥口口
口⑤⑤口
口口口⑦ |⑤---|
口口口⑥ |⑥--⑦|
43
①口②② |①---|
②口口口 |②--③|
口口①口
口口口③

口口口口
口口⑥口
④口⑦⑤ |④-⑤-|
⑥口④口 |⑥--⑦|
44
口①②④ |①-②-|
口③口① |③--④|
口口口③
口口口口

口口⑥口
口口⑤口
口⑤口⑦ |⑤---|
口⑥口口 |⑥--⑦|
45
①口口③ |①---|
②口②② |②---|
③口①口 |③---|
④口④④ |④---|
46
②①①② |①-②-|
口③③口 |③--④|
⑤口④④ |⑤---|
口⑤口口 |----|
47
④口⑥⑦ |①-②③|
口①⑧⑨ |-④-⑤|
口⑤口⑩ |⑥⑦⑧⑨|
②③⑪⑫ |-⑩⑪⑫|
48
①②口口 |①②③④|
③④口口 |-⑤⑥⑦|
口⑤口口
⑥⑦口口

⑨⑨口口
口口口口
⑧口⑧口 |⑧---|
口口口口 |⑨---|
49
⑥⑦④口 |①-②③|
⑧⑨口① |-④-⑤|
口⑩口⑤ |⑥⑦⑧⑨|
⑪⑫②③ |-⑩⑪⑫|
50
口口①② |①②③④|
口口③④ |-⑤⑥⑦|
口口口⑤
口口⑥⑦

口口⑨⑨
口口口口
⑧口⑧口 |⑧---|
口口口口 |⑨---|
51
④口⑥⑦ |①-②③|
口①⑧⑨ |-④-⑤|
口⑤口⑩ |⑥⑦⑧⑨|
②③⑪⑫ |-⑩⑪⑫|
52
①②口口 |①②③④|
③④口口 |-⑤⑥⑦|
口⑤口口
⑥⑦口口

⑨⑨口口
口口口口
⑧口⑧口 |⑧---|
口口口口 |⑨---|
53
⑥⑦④口 |①-②③|
⑧⑨口① |-④-⑤|
口⑩口⑤ |⑥⑦⑧⑨|
⑪⑫②③ |-⑩⑪⑫|
54
口口③④ |①②③④|
⑨口①② |⑤⑥⑦⑧|
口⑨⑦⑧ |⑨---|
口口⑤⑥ |----|

不確定度: 0

最終更新:2015年05月07日 16:06