Don't Stop the Music
Dream Girls

EXTREME

Level: 8
BPM: 123
Notes: 561

1
口口口口 |----|
口口口口 |----|
口口口口 |----|
口口口口 |----|
2
口口口口 |①---|
⑤口②① |②---|
④口口口 |③--④|
③口口口 |--⑤-|
3
口⑤口口 |①---|
口④②① |②---|
口③口口 |③--④|
口口口口 |--⑤-|
4
⑤口口口 |①---|
④口②① |②---|
③口口口 |③--④|
口口口口 |--⑤-|
5
口口口口 |①---|
口⑦⑥口 |----|
③⑤④口 |②-③-|
②口①① |④⑤⑥⑦|
6
②口③① |①-②-|
④口口⑨ |③-④-|
⑥⑧口⑦ |⑤-⑥⑦|
口口口⑤ |⑧-⑨-|
7
①③④② |①-②-|
⑨口口口 |③-④-|
⑦口⑧⑥ |⑤-⑥⑦|
⑤口口口 |⑧-⑨-|
8
②④③① |①-②-|
口口口⑨ |③-④-|
⑥⑧口⑦ |⑤-⑥⑦|
口口口⑤ |⑧-⑨-|
9
口口口⑥ |①---|
口口口⑤ |②---|
②口口④ |③-④-|
①①口③ |⑤-⑥-|
10
口⑤⑤⑦ |①-②-|
③⑥⑧④ |③-④-|
口⑧③口 |⑤--⑥|
①①②口 |⑦-⑧-|
11
⑧口口⑧ |①-②-|
⑥口⑦⑤ |③-④-|
⑤口①④ |⑤--⑥|
①③②③ |⑦-⑧-|
12
口①口口 |①-②-|
⑦口⑤口 |③-④-|
⑥③④① |⑤--⑥|
⑤口③② |--⑦-|
13
③①口口 |①-②-|
口⑤⑥④ |③-④-|
口⑥③口 |⑤--⑥|
口⑦⑤② |--⑦-|
14
口口口口 |①-②-|
③口口④ |③-④-|
口口①③
①口②③

口⑤口口
口⑥⑤口
口⑧⑦口 |⑤--⑥|
口口⑦口 |⑦-⑧-|
15
口口③② |①-②-|
口口③① |③-④-|
口口口④
①③口口

⑧口⑧⑦
⑥口口⑦
⑤口⑤口 |⑤--⑥|
口口口口 |⑦-⑧-|
16
口①口口 |①-②-|
口口④口 |③-④-|
口③③②
口口③①

口口⑤口
⑧口口口
⑥口口⑦ |⑤--⑥|
⑤口口⑦ |⑦-⑧-|
17
口①⑥口 |①-②-|
口⑤口⑥ |③-④-|
③口口④ |⑤--⑥|
⑦口②口 |--⑦-|
18
⑥④②① |①---|
口口⑤口 |②-③-|
口④⑦口 |④--⑤|
口③口口 |⑥-⑦-|
19
⑦④②① |①---|
口⑧⑤④ |②-③-|
口⑥口口 |④⑤-⑥|
口口③口 |⑦-⑧-|
20
⑦④②① |①---|
④⑤⑧口 |②-③-|
口口⑥口 |④⑤-⑥|
口③口口 |⑦-⑧-|
21
⑥④②① |①---|
③口口口 |②-③-|
口口⑥⑤ |④-⑤-|
口⑦口口 |⑥-⑦-|
22
④⑤⑧口 |①---|
口口⑥口 |②-③-|
口③口口 |④⑤-⑥|
⑦④②① |⑦-⑧-|
23
口⑧⑤④ |①---|
口⑥口口 |②-③-|
口口③口 |④⑤-⑥|
⑦④②① |⑦-⑧-|
24
口口口④ |①---|
③③④口 |②-③-|
③③④口 |④---|
⑤口②① |⑤---|
25
口⑧⑦⑮ |①②③④|
⑭⑥⑤⑬ |⑤⑥⑦⑧|
⑫④③⑪ |⑨⑩⑪⑫|
⑩②①⑨ |⑬⑭⑮-|
26
①④④口 |①--②|
口①口口 |③-④-|
口③②口
口口口口

⑥口口⑤
口口口口
口⑦口口 |⑤--⑥|
⑤⑥⑤⑥ |--⑦-|
27
⑥⑥⑥⑥ |①-②-|
③④②① |③-④-|
③⑤⑤① |⑤--⑥|
⑦④②口 |--⑦-|
28
⑥口口⑦ |①-②-|
⑥④⑤⑦ |③-④-|
口②③口 |⑤-⑥⑦|
⑧口口① |--⑧-|
29
⑦⑥⑥口 |①-②-|
口⑥④⑥ |③-④-|
⑤⑤③口 |⑤--⑥|
⑤⑤②① |--⑦-|
30
口④④① |①--②|
口口①口 |③-④-|
口②③口
口口口口

⑤口口⑥
口口口口
口口⑦口 |⑤--⑥|
⑥⑤⑥⑤ |--⑦-|
31
⑥⑥⑥⑥ |①-②-|
①②④③ |③-④-|
①⑤⑤③ |⑤--⑥|
口②④⑦ |--⑦-|
32
⑦口口⑥ |①-②-|
⑦⑤④⑥ |③-④-|
口③②⑧ |⑤-⑥⑦|
①口口口 |--⑧-|
33
口口口口 |①-②-|
口口④口 |③-④-|
口口③口
口口②①

口⑥⑥口
口⑥口⑥
⑤⑤口口 |⑤--⑥|
⑤⑤口⑦ |--⑦-|
34
①④④口 |①--②|
①口口口 |③-④-|
口③②口
口口口口

⑥口口⑤
口口口口
口⑦口口 |⑤--⑥|
⑤⑥⑤⑥ |--⑦-|
35
⑥⑥⑥⑥ |①-②-|
③④②① |③-④-|
③⑤⑤① |⑤--⑥|
⑦④②口 |--⑦-|
36
⑥口口⑦ |①-②-|
⑥④⑤⑦ |③-④-|
口②③口 |⑤-⑥⑦|
⑧口口① |--⑧-|
37
⑦⑥⑥口 |①-②-|
口⑥④⑥ |③-④-|
⑤⑤③口 |⑤--⑥|
⑤⑤②① |--⑦-|
38
口④④① |①--②|
口口①口 |③-④-|
口②③口
口口口口

⑤口口⑥
口口口口
口口⑦口 |⑤--⑥|
⑥⑤⑥⑤ |--⑦-|
39
⑥⑥⑥⑥ |①-②-|
①②④③ |③-④-|
①⑤⑤③ |⑤--⑥|
口②④⑦ |--⑦-|
40
⑦口口⑥ |①-②-|
⑦⑤④⑥ |③-④-|
口③②⑧ |⑤-⑥⑦|
①口口口 |--⑧-|
41
⑥⑦⑦⑧ |①-②-|
⑥口④⑧ |③-④-|
口口③⑤ |⑤-⑥-|
口口②① |⑦-⑧-|
42
口口口口 |①-②-|
口口口口 |③-④-|
③③④口
①①②③

⑥⑤⑦⑧
⑤⑥口口
⑧⑧口⑤ |⑤--⑥|
口口口口 |⑦-⑧-|
43
③③口口 |①-②-|
口口口口 |③-④-|
口口口④
①①③②

⑧⑧⑧⑦
⑥⑤口口
⑤⑥⑤口 |⑤--⑥|
口口口口 |⑦-⑧-|
44
⑧⑧口⑦ |①--②|
④⑥口⑤ |③-④-|
②⑤口③ |⑤--⑥|
①①口① |⑦-⑧-|
45
口口口口 |①--②|
①口口口 |③-④-|
④口③口
①②①口

⑤⑥⑦口
⑥口⑤口
口⑤口口 |⑤--⑥|
⑧⑧口口 |⑦-⑧-|
46
②③口口 |①-②-|
④口口口 |③-④-|
口口③③
口口①①

口口⑤⑥
口⑤⑥⑤
口口⑧⑧ |⑤--⑥|
⑦⑧口口 |⑦-⑧-|
47
③②③③ |①-②-|
口④口口 |③-④-|
口口口口
口口①①

口口⑧⑧
⑤口⑤⑥
口口⑥⑤ |⑤--⑥|
⑧⑦口口 |⑦-⑧-|
48
①口⑧⑧ |①--②|
③口⑥④ |③-④-|
⑤口⑤② |⑤--⑥|
⑦口①① |⑦-⑧-|
49
口①口口 |①--②|
口③口① |③-④-|
口口口④
口口②①

口口⑥⑤
口口口⑥
口⑤⑤口 |⑤--⑥|
口⑦⑧⑧ |⑦-⑧-|
50
①③口口 |①-②-|
口③口口 |③-④-|
口口④②
口口口口

⑧口⑤口
口口口⑦
⑨⑥口口 |⑤-⑥⑦|
口口口口 |⑧-⑨-|
51
口⑤口口 |①-②③|
口④③口 |④-⑤-|
口口口口 |⑥---|
⑥②①⑥ |----|

不確定度: 0

最終更新:2014年12月11日 23:29