電司 -DANCE-
LOLLIPOP F

EXTREME

Level: 9
BPM: 130
Notes: 671

1
口口口口 |----|
口口口口 |----|
口口口口 |----|
口口口口 |----|
2
口口口⑥ |①---|
口①①⑤ |②---|
口②②④ |③-④-|
口口口③ |⑤-⑥-|
3
口口口口 |①---|
⑤①①口 |②---|
④②②口 |③-④-|
③口口口 |⑤---|
4
③④⑤⑥ |①---|
口①②口 |②---|
口①②口 |③-④-|
口口口口 |⑤-⑥-|
5
口口口口 |①-②③|
⑤口口② |④-⑤-|
口口口④
①③①口

⑦口⑧⑧
口⑦⑧⑧
口⑧⑥口 |⑥-⑦-|
⑧口口⑥ |⑧---|
6
口①口口 |--①-|
⑦口④口 |②-③-|
③口口② |④-⑤⑥|
⑤⑥口口 |-⑦--|
7
口口③② |①-②③|
口口口④ |④-⑤-|
口①①口
⑤口口口

口口口口
口⑥口⑨
口口口口 |⑥-⑦⑧|
口口⑧⑦ |-⑨--|
8
②③⑥⑤ |①-②③|
④口口口 |④-⑤⑥|
口口①口
口口口口

口口口口
⑩口口⑦
口口口口 |⑦-⑧⑨|
⑧⑨口口 |-⑩--|
9
口口口口 |①②③-|
口口口口 |④⑤⑥⑦|
⑦⑤②①
④⑥口③

⑨口口⑧
口⑩口口
口口口口 |⑧-⑨⑩|
⑪口口⑪ |-⑪--|
10
⑥⑦②② |①-②-|
③口⑤① |③-④-|
③⑤口① |⑤-⑥⑦|
⑧④④口 |-⑧--|
11
⑤口口⑥ |①②③④|
⑩⑦⑦口 |⑤-⑥-|
口口②④ |⑦-⑧⑨|
⑧⑨③① |-⑩--|
12
口②口口 |①-②-|
口③④③ |③-④-|
①②①口
口口④口

口口⑥⑥
口口口口
口⑦⑧口 |⑤-⑥-|
⑤⑤口口 |⑦⑧--|
13
①④⑤⑧ |①②③④|
③②⑦⑥ |⑤⑥⑦⑧|
⑩⑨⑨⑪ |⑨-⑩-|
⑩⑫⑫⑪ |⑪-⑫-|
14
③口口④ |①-②-|
口①③② |③-④-|
③口口口
口口口口

口⑥⑤口
⑦口⑧口
口⑤口口 |⑤-⑥-|
⑦⑧口口 |⑦-⑧-|
15
③口⑥⑤ |①-②-|
⑦①口⑦ |③-④-|
③⑤②口 |⑤-⑥-|
⑦口④口 |⑦---|
16
口⑥口⑦ |①-②-|
⑤③⑥口 |③-④-|
①⑥⑤④ |⑤---|
口③③② |⑥-⑦-|
17
口⑦口⑦ |①-②-|
⑤③⑥⑤ |③-④-|
①⑦④口 |⑤-⑥-|
口③口② |⑦---|
18
③口口口 |①-②-|
口①③② |③-④-|
③口口④
口口口口

口口口口
⑥口⑦口
口⑤⑤口 |⑤---|
⑥口⑥口 |⑥-⑦-|
19
③口③② |①-②-|
⑥①⑤④ |③-④-|
③⑤⑥口 |⑤---|
⑥口⑦口 |⑥-⑦-|
20
①②③④ |①②③④--|
口⑤⑤口 |⑤-⑥-|
⑥口口口
口⑥口口

口⑨口⑩
⑧口口⑨
口⑨⑦⑧ |⑦-⑧-|
口口口⑦ |⑨-⑩-|
21
⑧⑯⑦⑮ |①②③④|
⑥⑭⑤⑬ |⑤⑥⑦⑧|
④⑫③⑪ |⑨⑩⑪⑫|
②⑩①⑨ |⑬⑭⑮⑯|
22
④口①口 |①--②|
口口③口 |③-④-|
口口②口
口③口④

口⑤⑧口
⑥⑧口⑦
⑧⑥口⑥ |⑤--⑥|
口口⑤口 |⑦-⑧-|
23
②②口① |①-②③|
口口④口 |④-⑤-|
口口③口
⑤⑤口⑤

⑧⑧⑨口
口口口⑧
口口口⑦ |⑥--⑦|
口口⑥口 |⑧-⑨-|
24
⑨④⑨① |①--②|
口⑧③⑧ |③-④-|
口口②⑦ |⑤-⑥⑦|
⑥口⑤④ |⑧-⑨-|
25
口⑤⑨① |①-②③|
⑧⑧④⑧ |④-⑤-|
④口③⑦ |⑥--⑦|
口②⑥⑤ |⑧-⑨-|
26
⑩口⑨⑧ |①-②③|
⑦⑨⑥⑤ |④-⑤-|
⑤⑥①⑩ |⑥-⑦⑧|
②④④③ |⑨-⑩-|
27
口①口口 |①-②③|
口⑤口⑤ |④-⑤-|
④口①口
口②④③

⑥⑩⑨⑧
⑨口⑥口
口口口⑩ |⑥-⑦⑧|
⑦口口口 |⑨-⑩-|
28
⑤口⑧⑦ |①-②③|
⑧⑧⑥⑤ |④-⑤-|
④口①⑨ |⑥--⑦|
口②④③ |⑧-⑨-|
29
②②④④ |①-②-|
口口口口 |③-④-|
口①③口
①口口③

⑤口口口
⑥口口口
⑦口口口 |----|
⑧口口口 |⑤⑥⑦⑧|
30
⑦口④⑤ |①--②|
⑧口⑦③ |③-④-|
⑨口⑥② |⑤--⑥|
⑩口①⑨ |⑦⑧⑨⑩|
31
口口④口 |①--②|
口口口③ |③-④-|
口口口②
口口①口

⑤⑧口⑨
⑦⑥口⑩
口口口⑪ |⑤⑥⑦⑧|
口口口⑫ |⑨⑩⑪⑫|
32
②②④④ |①---|
口③①口 |②---|
①口口③ |③---|
②①③④ |④---|
33
口②③口 |①-②-|
口③口③ |--③-|
①口①口
口①口口

口口口⑥
⑥口口口
口⑤⑤口 |④---|
口口④口 |⑤-⑥-|
34
②②④④ |①---|
口③①口 |②---|
①口口③ |③---|
②①③④ |④---|
35
口①口③ |①-②-|
①口③② |--③-|
口口口口
口口口口

④口口口
⑦⑦口口
⑥⑥口口 |④-⑤-|
⑤⑤口口 |⑥-⑦-|
36
⑧⑥⑦① |①--②|
口⑧①口 |③-④-|
口⑤④口 |⑤--⑥|
⑤③②④ |⑦-⑧-|
37
口口口① |①--②|
口口①口 |③-④-|
口④口口
④②③口

口⑦⑥⑧
口口口⑧
口口⑤口 |⑤--⑥|
口口口⑤ |⑦-⑧-|
38
口③口口 |①---|
③②①口 |--②-|
①口③② |----|
口①②口 |--③-|
39
②口口① |①②③④|
口④③口 |⑤⑥⑦⑧|
⑥口口⑤
口⑧⑦口

口⑩⑫⑭
⑭口口口
口⑬⑬口 |⑨⑩⑪⑫|
⑪口口⑨ |⑬-⑭-|
40
②②④④ |①---|
口③①口 |②---|
①口口③ |③---|
②①③④ |④---|
41
口②③口 |①-②-|
口③口③ |--③-|
①口①口
口①口口

口口口⑥
⑥口口口
口⑤⑤口 |④---|
口口④口 |⑤-⑥-|
42
②②④④ |①---|
口③①口 |②---|
①口口③ |③---|
②①③④ |④---|
43
④①口③ |①-②-|
①口③② |--③-|
口⑥口口 |④---|
口口⑤口 |⑤-⑥-|
44
②口口⑦ |①--②|
②④①⑦ |③-④-|
⑥⑧⑤③ |⑤--⑥|
⑥口口③ |⑦-⑧-|
45
③③口口 |①-②③|
①口口⑤ |④-⑤-|
口口⑤②
口①④④

口口口⑧
⑦⑥口口
口⑨口⑧ |⑥--⑦|
⑦口口口 |⑧-⑨-|
46
口③口口 |①---|
③②①口 |--②-|
①口③② |----|
口①②口 |--③-|
47
⑥口①⑦ |①②③④|
口口⑤口 |⑤⑥⑦⑧|
⑧②口③
④口口口

口⑭口口
口⑩口⑬
口⑯⑨口 |⑨⑩⑪⑫|
口⑫⑮⑪ |⑬⑭⑮⑯|
48
③口口① |①--②|
口口③口 |③-④-|
③口②口
口口口④

口口口⑧
⑧⑤口⑥
口⑦⑦口 |⑤⑥--|
口口口口 |⑦-⑧-|
49
口③口口 |①--②|
口④①② |③-④-|
①口口④
口①④口

⑦⑧口⑦
⑧口⑥口
口口⑧口 |⑤⑥--|
⑤口口口 |⑦-⑧-|
50
口口①⑦ |①--②|
⑦③⑥② |③-④-|
口①口口 |⑤⑥--|
⑤口④口 |⑦---|
51
口①①⑦ |①--②|
⑦口⑥② |③-④-|
口③口口 |⑤⑥--|
⑤口④口 |⑦---|
52
①①①⑧ |①--②|
⑧③②⑥ |③-④-|
口⑦⑦口 |⑤⑥--|
⑤口口④ |⑦-⑧-|
53
⑤口⑧⑦ |①--②|
⑦①④⑧ |③-④-|
④⑧⑥① |⑤⑥--|
③④①② |⑦-⑧-|
54
口①口口 |①--②|
口口①口 |③-④-|
③口口②
口口④口

⑤口口⑦
口口⑥口
口⑦口口 |⑤⑥--|
口口口口 |⑦---|
55
口①④口 |①②③④|
⑤口⑧口 |⑤⑥⑦⑧|
⑦口口⑥
③口②口

⑪口口⑭
⑮⑨口口
口⑬⑩⑯ |⑨⑩⑪⑫|
口口口⑫ |⑬⑭⑮⑯|
56
②②④④ |①---|
口③①口 |②---|
①口口③ |③---|
②①③④ |④---|

不確定度: 0

最終更新:2014年12月11日 23:28