全城熱愛 -Feel The Love-
羅志祥 -Show Lo-

EXTREME

Level: 8
BPM: 130
Notes: 582

1
口口口口 |----|
口口口口 |----|
口口口口 |----|
口口口口 |----|
2
⑤⑧⑦口 |①---|
⑤⑥⑦④ |②-③-|
口⑥口④ |④⑤-⑥|
③①①② |⑦-⑧-|
3
口⑦⑧⑤ |①---|
④⑦⑥⑤ |②-③-|
④口⑥口 |④⑤-⑥|
②①①③ |⑦-⑧-|
4
口⑦⑧⑤ |①---|
④⑦⑥⑤ |②-③-|
④口⑥口 |④⑤-⑥|
①②③① |⑦-⑧-|
5
①口口口 |①--②|
⑦⑥⑤④ |--③-|
口口口⑧ |④-⑤-⑥-|
②口口③ |⑦-⑧---|
6
⑤⑥④⑦ |①---|
口⑧口② |②-③-|
⑥⑤⑦④ |④⑤-⑥|
③①①② |⑦-⑧-|
7
⑦④⑥⑤ |①---|
②口⑧口 |②-③-|
④⑦⑤⑥ |④⑤-⑥|
②①①③ |⑦-⑧-|
8
⑦④⑥⑤ |①---|
口②⑧口 |②-③-|
④⑦⑤⑥ |④⑤-⑥|
①②③① |⑦-⑧-|
9
口口②② |①---|
①①口口 |----②-|
口口②②
①①口口

口口口口
⑤④③口
口口口口 |----|
口口口口 |③-④-⑤-|
10
⑦口⑧② |①-②-|
⑤口⑦③ |③-④-|
③口⑥④ |⑤-⑥-|
①口⑤口 |⑦-⑧-|
11
⑥①口① |①--②|
⑤②口② |③-④-|
③④口④ |⑤---|
①口口口 |⑥---|
12
口⑤口⑦ |①-②-|
④⑥口⑤ |③-④-|
③⑦口③ |⑤-⑥-|
②⑧口① |⑦-⑧-|
13
①口①⑥ |①--②|
②口②⑤ |③-④-|
④口④③ |⑤---|
口口口① |⑥---|
14
⑦口⑤口 |①-②-|
⑤口⑥④ |③-④-|
③口⑦③ |⑤-⑥-|
①口⑧② |⑦-⑧-|
15
⑥④②① |①--②|
⑤④②① |③-④-|
③口口口 |⑤---|
①口口口 |⑥---|
16
口⑤口⑦ |①-②-|
④⑥口⑤ |③-④-|
③⑦口③ |⑤-⑥-|
②⑧口① |⑦-⑧-|
17
①②④口 |①--②|
①②④口 |③-④-|
口口口③
口口口①

口口口口
⑦口口口
口⑥口口 |--⑤-|
⑤口口口 |⑥-⑦-|
18
口口③① |①-②-|
口口③① |③-④-|
口口口口
口口④②

口口口口
口口口口
⑤⑥口口 |⑤-⑥-|
口⑦口⑧ |⑦-⑧-|
19
①③口口 |①-②-|
①③口口 |③-④-|
口口口口
②④口口

口口口口
口口口口
口口⑥⑤ |⑤-⑥-|
⑧口口⑦ |⑦-⑧-|
20
口①①口 |①-②-|
口②②口 |--③-|
口⑤④③ |--④-|
口⑤④③ |--⑤-|
21
④②②④ |①-②-|
⑥①①口 |--③-|
③⑤口③ |④---|
口口口口 |⑤-⑥-|
22
口口①③ |①-②-|
口口③① |③-④-|
口口口口
口口④②

口口口口
口⑤口口
⑥口口口 |⑤-⑥-|
口⑦口⑧ |⑦-⑧-|
23
③①口口 |①-②-|
①③口口 |③-④-|
口口口口
②④口口

口口口口
口口⑤口
口口口⑥ |⑤-⑥-|
⑧口⑦口 |⑦-⑧-|
24
口①①口 |①-②-|
口②②口 |--③-|
口⑤④③ |--④-|
口⑤④③ |--⑤-|
25
口②②口 |①-②-|
④①①③ |③④⑤⑥|
⑥口口⑤
口口口口

口口口口
口口口⑩
口口⑨口 |⑦-⑧-|
口⑧口⑦ |⑨-⑩-|
26
①口①① |①---|
②口⑤④ |②---|
③⑥⑥口 |③-④-|
⑤口口口 |⑤-⑥-|
27
口口口① |①---|
口⑥⑥② |②---|
口口口③ |③-④-|
④④⑤⑤ |⑤-⑥-|
28
口③①口 |①--②|
①⑦⑦口 |③-④-|
④⑥⑤② |--⑤-|
⑥口④⑤ |⑥-⑦-|
29
口①③口 |①--②|
口⑦口① |③-④-|
②⑥口④ |--⑤-|
⑤④口口 |⑥-⑦-|
30
①口①① |①---|
②口⑤④ |②---|
③⑥⑥口 |③-④-|
⑤口口口 |⑤-⑥-|
31
口口口① |①---|
口⑥⑥② |②---|
口⑤口③ |③-④-|
口④口⑤ |⑤-⑥-|
32
口③①口 |①--②|
③口口① |③-④-|
①口②口
④④④④

口口口⑤
口⑦⑦口
⑥口口口 |--⑤-|
口口口口 |⑥-⑦-|
33
口①③口 |①--②|
①口口③ |③-④-|
口②口①
④④④④

口口口口
口口⑦口
口⑥⑤口 |--⑤-|
口口口口 |⑥-⑦-|
34
①口②口 |①---|
②②口① |②---|
口口②口
口口口①

口口口口
口口④④
③口⑥③ |③-④-|
⑤⑤口口 |⑤-⑥-|
35
②①口① |①---|
④④②② |②---|
②①口③ |③-④-|
③⑥⑤⑤ |⑤-⑥-|
36
①口①② |①---|
②②口口 |②---|
口口①②
口口口口

口口口⑥
口口④④
③口口⑥ |③-④-|
⑤⑤口③ |⑤-⑥-|
37
①④②口 |①-②-|
③口口口 |③-④-|
口④②口
口口口口

口口口口
口口口⑧
⑤口⑦口 |⑤-⑥-|
口口口⑥ |⑦-⑧-|
38
①口①① |①---|
②②④④ |②---|
③口⑥③ |③-④-|
⑤⑤②② |⑤-⑥-|
39
①①口① |①---|
口口②② |②---|
②②口口
口口口口

口口口口
③④口口
口⑥口③ |③-④-|
口④⑤⑤ |⑤-⑥-|
40
①口①① |①---|
②②口口 |②---|
口口②②
口口口口

口口口⑥
口口④③
③口口⑥ |③-④-|
⑤⑤④口 |⑤-⑥-|
41
①④②口 |①-②-|
③⑧⑦⑥ |③-④-|
⑤④②口 |⑤-⑥-|
口口口⑥ |⑦-⑧-|
42
口口口口 |①-②-|
口口口口 |③-④-|
④③②①
口口口口

口⑥⑤口
口⑧⑦口
口⑩⑨口 |⑤⑥⑦⑧|
⑫口口⑪ |⑨⑩⑪⑫|
43
口口口口 |----|
口口口口 |----|
口口口口 |----|
口口口口 |----|
44
⑥⑧⑧⑦ |①---|
⑤①①④ |②-③-|
⑥③②⑦ |④⑤-⑥|
口⑤④口 |⑦-⑧-|
45
⑦⑧⑧⑥ |①---|
④①①⑤ |②-③-|
⑦②③⑥ |④⑤-⑥|
口④⑤口 |⑦-⑧-|
46
⑥⑧⑧⑦ |①---|
⑤①①④ |②-③-|
⑥③②⑦ |④⑤-⑥|
口⑤④口 |⑦-⑧-|
47
口口口口 |①---②-|
口①①口 |③-④-⑤-|
口口口口
⑤④③②

口口口口
口口⑪⑩
⑨⑧⑦⑥ |⑥-⑦-⑧-|
口口口口 |⑨-⑩-⑪-|
48
⑤⑥④⑦ |①---|
⑥⑤⑦④ |②-③-|
⑧③口⑧ |④⑤-⑥|
①①②② |⑦-⑧-|
49
⑦④⑥⑤ |①---|
④⑦⑤⑥ |②-③-|
⑧口③⑧ |④⑤-⑥|
②②①① |⑦-⑧-|
50
口口口口 |①---|
口口口口 |②-③-|
口③口口
①①②②

⑤⑥④⑦
口⑤口④
⑥口⑦口 |④⑤-⑥|
口⑧⑧口 |⑦-⑧-|
51
口口口口 |①--②|
②③①口 |--③-|
口②③①
口口口口

⑨口口口
⑦口口⑧
口口口⑥ |④⑤⑥-|
⑤口口④ |⑦⑧⑨-|

不確定度: 0

最終更新:2014年12月12日 01:47