大藝術家 -The Great Artist-
蔡依林 -Jolin Tsai-

EXTREME

Level: 8
BPM: 96
Notes: 648

1
口口口口 |----|
口口口口 |----|
口口口口 |----|
口口口口 |----|
2
⑬⑮⑯⑭ |①②③④|
⑨⑪⑫⑩ |⑤⑥⑦⑧|
⑤⑦⑧⑥ |⑨⑩⑪⑫|
①③④② |⑬⑭⑮⑯|
3
口口口口 |①②③④|
①③④② |⑤⑥⑦⑧|
⑤⑦⑧⑥
口口口口

口口口口
口口口口
⑬⑮⑯⑭ |⑨⑩⑪⑫|
⑨⑪⑫⑩ |⑬⑭⑮⑯|
4
口④③② |①②③④|
口⑥⑦口 |⑤⑥⑦⑧|
⑤口口⑧
①口口口

⑮口口⑭
⑮⑬口⑭
⑬⑫⑪口 |⑨⑩⑪⑫|
⑬⑩⑨口 |⑬-⑭⑮|
5
口①②口 |--①②|
口口口口 |③④⑤-|
③口口口
口④⑤口

口口口⑥
口⑪⑩⑦
⑪⑨⑧⑩ |⑥⑦⑧⑨|
⑪口口⑩ |⑩-⑪-|
6
口③②① |-①②③|
④口口⑤ |④-⑤-|
口④⑤口
口④⑤口

口口口⑩
⑨⑥⑦⑩
口口口⑧ |⑥⑦⑧-|
⑨口口口 |⑨-⑩-|
7
口口口口 |--①②|
口口①口 |③-④-|
③②口口
口④④口

口⑤⑥口
⑤⑨⑨⑥
口⑦⑧口 |⑤⑥-⑦|
⑦⑨⑨⑧ |⑧-⑨-|
8
口①口口 |--①②|
②口口口 |③④⑤⑥|
③口口口
④⑤⑥口

口⑫⑪口
⑫⑨⑬⑪
⑫⑩⑧⑪ |⑦⑧⑨⑩|
口口口⑦ |⑪-⑫⑬|
9
口口口口 |--①②|
口①口口 |③④⑤⑥|
口口②口
⑥⑤④③

口⑨⑪口
⑧⑫⑩⑪
⑫⑦⑬⑪ |⑦⑧⑨⑩|
口口口⑬ |⑪-⑫⑬|
10
口①口口 |-①②③|
②⑤口④ |④-⑤-|
⑤③口④
⑤口④口

口⑥⑩口
⑨口⑦⑩
口⑨⑧⑩ |⑥⑦⑧-|
口⑨口口 |⑨-⑩-|
11
口口口口 |--①②|
口①口口 |③-④-|
口口②口
口④④③

口⑤⑤口
⑦口口⑥
口⑨⑨口 |⑤-⑥⑦|
口口口⑧ |⑧-⑨-|
12
口口口口 |①-②③|
口①①口 |④-⑤-|
②⑤⑤③
口④口口

⑥⑦口⑥
口口⑧口
⑨口口口 |⑥---|
口口口⑩ |⑦⑧⑨⑩|
13
⑤口口⑤ |①-②③|
口②口口 |④-⑤-|
口口③口
④①①口

口口口口
口⑦口口
⑥口⑧⑥ |⑥---|
口⑨口⑩ |⑦⑧⑨⑩|
14
⑥④口⑥ |①-②③|
①⑦⑧口 |④-⑤-|
口⑨⑩③ |⑥---|
②⑤⑤口 |⑦⑧⑨⑩|
15
②口口口 |①-②③|
口口⑦③ |④⑤⑥⑦|
④口口口
①⑥口⑤

⑨⑨⑧⑧
口口口⑩
⑨⑨⑧⑧ |⑧---|
口口口口 |⑨-⑩-|
16
⑤口口口 |--①②|
口①口口 |③④⑤-|
口口②口
③口口④

口口⑥⑥
⑦⑦口口
口口口⑥ |⑥---|
口⑦口口 |⑦---|
17
⑥①⑥口 |①②③④|
口⑤口② |⑤-⑥-|
③口口口
口口口④

口⑨口⑦
口⑧口口
口口⑦⑦ |⑦---|
⑧⑧口口 |⑧-⑨-|
18
①④④① |--①②|
口口③口 |-③-④|
口③口口
口②②口

⑦口口⑦
⑦⑥口⑦
口口⑥口 |⑤-⑥-|
⑤口口⑤ |⑦---|
19
⑥②口⑥ |①-②③|
口口③口 |④⑤⑥-|
④口口⑤
①①①①

口⑧口口
口口口⑨
口⑦⑦⑪ |⑦-⑧⑨|
⑩口口⑪ |⑩-⑪-|
20
①口①口 |①---|
①⑤①口 |②③④⑤|
口①④③
口②②口

口⑦⑧口
⑥口⑪口
⑨⑩口口 |⑥-⑦⑧|
口口口口 |-⑨⑩⑪|
21
②③④① |①-②③|
②⑤⑥① |④-⑤-|
口⑦口④ |⑥---|
⑤⑧⑧⑥ |⑦-⑧-|
22
口①口① |①---|
口①⑤① |②③④⑤|
③④①口
②口口②

口⑧⑦口
口⑪口⑥
口口⑩⑨ |⑥-⑦⑧|
口口口口 |-⑨⑩⑪|
23
①④③② |①-②③|
①口⑤② |④-⑤-|
④口口口
口口口⑤

口口口口
口⑥口口
⑦口口⑦ |⑥---|
⑥⑧⑧口 |⑦-⑧-|
24
口口口⑥ |①-②③|
口⑤④⑥ |④⑤⑥-|
口③②口
①口口口

口⑦⑧口
口口口口
⑦口口⑧ |⑦-⑧-|
⑨口口⑨ |⑨---|
25
①⑥⑦口 |①-②③|
口④⑤口 |④⑤⑥⑦|
口②③口
口口口口

口口口口
⑧口口⑨
口⑩⑩口 |⑧-⑨-|
⑧⑪⑪⑨ |⑩-⑪-|
26
①②②① |①---|
②①①② |②---|
①②②①
口口口口

③④④③
④③③④
③④④③ |③---|
口口口口 |④---|
27
①口⑥口 |①-②③|
口口口⑥ |④⑤-⑥|
⑤④口口
口口③②

口口口⑦
口口⑦口
口⑧⑨口 |-⑦-⑧|
⑩口口⑩ |⑨-⑩-|
28
③⑦③⑦ |①-②-|
口③⑦口 |③-④-|
⑥④⑧② |⑤-⑥-|
口⑤①口 |⑦-⑧-|
29
③⑦③⑦ |①-②-|
口③⑦口 |③-④-|
⑥④⑧② |⑤-⑥-|
⑤口口① |⑦-⑧-|
30
①口口⑤ |①-②-|
②⑧④⑥ |③-④-|
⑦③⑦③ |⑤-⑥-|
口⑦③口 |⑦-⑧-|
31
①②⑥⑤ |①-②-|
口⑧④口 |③-④-|
⑦③⑦③ |⑤-⑥-|
口⑦③口 |⑦-⑧-|
32
口⑤④口 |①②③④|
⑥⑫⑪③ |⑤⑥⑦⑧|
⑦⑬⑩② |⑨⑩⑪⑫|
口⑧⑨① |⑬---|
33
⑬④⑤口 |①②③④|
③⑪⑫⑥ |⑤⑥⑦⑧|
②⑩口⑦ |⑨⑩⑪⑫|
①⑨⑧口 |-⑬--|
34
口口②② |①---|
口口口口 |----|
口口口口 |②---|
口口口① |----|
35
口②口② |①---|
口口②口 |----|
口口口口 |②---|
口口口① |----|
36
①口⑧口 |①②③④|
②口口⑦ |⑤⑥⑦⑧|
③口口⑥
口④⑤口

⑬⑨口口
口⑩口口
口⑪⑫口 |⑨⑩⑪⑫|
口口口口 |-⑬--|
37
口⑧⑨① |①②③④|
⑦⑬⑩② |⑤⑥⑦⑧|
⑥⑫⑪③ |⑨⑩⑪⑫|
口⑤④口 |⑬---|
38
口口②② |①---|
口口③① |----|
口④口口 |②---|
口口口口 |③-④-|
39
口口口口 |①---|
口口口口 |②---|
口口口口
口口①②

口口口口
口口口口
⑦③④⑧ |③④⑤⑥|
口⑤⑥⑧ |⑦-⑧-|
40
①口①口 |①---|
①⑤①口 |②③④⑤|
口①④③
口②②口

口⑦⑧口
⑥口⑪口
⑨⑩口口 |⑥-⑦⑧|
口口口口 |-⑨⑩⑪|
41
②③④① |①-②③|
②⑤⑥① |④-⑤-|
口⑦口④ |⑥---|
⑤⑧⑧⑥ |⑦-⑧-|
42
口①口① |①---|
口①⑤① |②③④⑤|
③④①口
②口口②

口⑧⑦口
口⑪口⑥
口口⑩⑨ |⑥-⑦⑧|
口口口口 |-⑨⑩⑪|
43
①④③② |①-②③|
①口⑤② |④-⑤-|
④口口口
口口口⑤

口口口口
口⑥口口
⑦口口⑦ |⑥---|
⑥⑧⑧口 |⑦-⑧-|
44
口口口⑥ |①-②③|
口⑤④⑥ |④⑤⑥-|
口③②口
①口口口

口⑦⑧口
口口口口
⑦口口⑧ |⑦-⑧-|
⑨口口⑨ |⑨---|
45
①⑥⑦口 |①-②③|
口④⑤口 |④⑤⑥⑦|
口②③口
口口口口

口口口口
⑧口口⑨
口⑩⑩口 |⑧-⑨-|
⑧⑪⑪⑨ |⑩-⑪-|
46
①②②① |①---|
②①①② |②---|
①②②①
口口口口

③④④③
④③③④
③④④③ |③---|
口口口口 |④---|
47
①口⑥口 |①-②③|
口口口⑥ |④⑤-⑥|
⑤④口口
口口③②

口口口⑦
口口⑦口
口⑧⑨口 |-⑦-⑧|
⑩口口⑩ |⑨-⑩-|

不確定度: 0

最終更新:2014年12月12日 01:49