A to Z
OSAKA翔GANGS

EXTREME

Level: 9
BPM: 160-204
Notes: 618

BPM: 160
1
口口口口 |----|
口口口口 |----|
口口口口 |----|
口口口口 |----|
2
口口口口 |①---|
①口口口 |②-③-|
①②③④ |④---|
口⑤口⑥ |⑤-⑥-|
3
口④口③ |--①-|
②口①口 |②-③-|
⑥⑥⑤口 |④---|
口口口口 |⑤-⑥-|
4
口口口⑤ |①-②-|
口口口④ |③-④-|
口⑦口③ |⑤---|
①①⑥② |⑥-⑦-|
5
⑤口④口 |①-②-|
口③①口 |③-④-|
⑥口②口 |⑤---|
⑦口口口 |⑥-⑦-|
6
口口口口 |①---|
口口口① |②-③-|
④③②① |④---|
⑥口⑤口 |⑤-⑥-|
7
③口口④ |--①-|
口①④② |②-③-|
口⑤⑥⑥ |④---|
口口口口 |⑤-⑥-|
8
⑤口口口 |①-②-|
④口口口 |③-④-|
③口⑦口 |⑤---|
②⑥①① |⑥-⑦-|
9
口④口⑤ |①-②-|
口①③口 |③-④-|
口②⑥⑦ |⑤-⑥-|
口口口口 |⑦---|
10
口口口口 |①---|
①②③④ |②-③-|
①②③④ |④---|
①⑤口⑥ |⑤-⑥-|
11
口④口③ |--①-|
②口①口 |②-③-|
⑥⑥⑤口 |④---|
口口口口 |⑤-⑥-|
12
口口口⑤ |①-②-|
口口口④ |③-④-|
口⑦口③ |⑤---|
①①⑥② |⑥-⑦-|
13
⑤口④口 |①-②-|
口③①口 |③-④-|
⑥口②口 |⑤---|
⑦口口口 |⑥-⑦-|
14
口口口口 |①---|
④③②① |②-③-|
④③②① |④---|
⑥口⑤① |⑤-⑥-|
15
③口口④ |--①-|
口①④② |②-③-|
口⑤⑥⑥ |④---|
口口口口 |⑤-⑥-|
16
⑤口口口 |①-②-|
④口口口 |③-④-|
③口⑦口 |⑤---|
②⑥①① |⑥-⑦-|
17
口④口⑤ |①-②-|
口①③口 |③-④-|
口②⑥⑦ |⑤-⑥-|
口口口⑧ |⑦-⑧-|

BPM: 204
18
口口口口 |----|
口口口口 |----|
口口口口 |----|
口口口口 |----|
19
口口口口 |----|
口口口口 |----|
口口口口 |----|
口口口口 |----|
20
③④③④ |①---|
②③②③ |②---|
①②①② |③---|
④①④① |④---|
21
⑥口⑥口 |①---②-|
口⑦④⑤ |③-④-⑤-|
③②⑦口 |⑥---|
口①口① |⑦---|
22
口②③② |①---|
④口④口 |②---|
③口口口 |③---|
①①①① |④---|
23
口口口口 |①---|
口①⑤④ |②---③-|
口②③② |----④-|
口口口① |⑤---|
24
②③②口 |①---|
口④口④ |②---|
口口口③ |③---|
①①①① |④---|
25
③口口口 |①---|
④口①⑥ |②---③-|
②⑦②⑤ |④---⑤-|
①口口口 |⑥---⑦-|
26
口②③② |①---|
④口④口 |②---|
③口口口 |③---|
①①①① |④---|
27
口口口口 |①---|
口①⑤④ |②---③-|
口②③② |----④-|
口口口① |⑤---|
28
①②口① |①---|
③口⑦口 |②-③-④-|
口④口口 |⑤---⑥-|
⑤口⑥口 |--⑦---|
29
①口③口 |①-②-③-|
口②口④ |④-⑤-⑥-|
⑦⑧⑤口 |⑦---|
口⑥口口 |⑧---|
30
口③口② |①---|
口口①口 |②---|
口口④② |③---|
口口①口 |④---|
31
②口⑤④ |①---|
③①口口 |②---③-|
②口口口 |----④-|
口①口口 |⑤---|
32
口口口口 |①---|
口①口① |②---|
③口③口 |③---|
口②④口 |④---|
33
口口口口 |①---|
④⑤②口 |②---③-|
口③口口 |----④-|
①口口① |⑤---|
34
口口①口 |①---|
口口④② |②---|
口口①口 |③---|
口③口② |④---|
35
口①口口 |①---|
②口口口 |②---③-|
③①口口 |----④-|
②口⑤④ |⑤---|
36
口②④口 |①---|
③口③口 |②---|
口①口① |③---|
口口口口 |④---|
37
①口口① |①---|
口③⑤③ |②---|
④口口口 |③---|
②④②口 |④---⑤-|
38
④①④① |①---|
口③⑥口 |②---③-|
口口口② |④---|
口⑤②⑤ |⑤---⑥-|
39
③②③口 |①---|
口口⑤口 |②---③-|
④口①口 |----|
口④口口 |④---⑤-|
40
④口④口 |①---|
①③⑥① |②---③-|
口口口② |④---|
口⑤②⑤ |⑤---⑥-|
41
③②③口 |①---|
口④口④ |②---③-|
口口①口 |----|
口口口口 |④---|
42
口口⑥⑤ |----①-|
⑤口口口 |②---③-|
③④②① |④---|
①口口③ |⑤---⑥-|
43
①②口④ |①---|
口口③① |②---|
口③口口 |③---|
④口口口 |④---|
44
④口③口 |①---|
①口口③ |②---|
③口口① |③---|
口③口② |④---|
45
口①口口 |①---|
①③③口 |②---|
口③③① |③---|
口口①② |----|
46
①口口① |①---|
④口口口 |②---|
③口口口 |③---|
②②②② |④---|
47
①②③④ |①---|
④④④口 |②---|
口口口口 |③---|
口口口口 |④---|
48
口口口口 |①---|
口口口① |②---|
①①口口 |③---|
②口④③ |④---|
49
口口口口 |①---|
④口口④ |②---|
③口口口 |③---|
②①口口 |④---|
50
①②③④ |①---|
口口口口 |②---|
口口口① |③---|
口口②② |④---|
51
口口口⑥ |①---|
⑥口口① |②---|
口④口② |③---④-|
口口⑤③ |⑤---⑥-|
52
②口①口 |①---|
口口口② |②---|
④口口③ |③---|
③口口④ |④---|
53
口①①口 |①---|
口①①口 |----|
口口口口
口口口口

口口口口
口口④口
口②口② |②---|
口③口口 |③---④-|
54
⑤③口口 |①---|
口口⑥⑤ |②---③-|
④口②④ |④---|
①口口① |⑤---⑥-|
55
口口口口 |①---|
口②⑤口 |②---③-|
③口口③ |----|
口④①口 |④---⑤-|
56
⑤③⑥口 |①---|
口口口⑤ |②---③-|
④口②④ |④---|
①口口① |⑤---⑥-|
57
口口口口 |①---|
口口②口 |②---③-|
口①口口 |----|
③口口③ |----|
58
③口③口 |①---|
②②②口 |②---|
口①口口 |③---|
口口口口 |----|
59
口口口口 |①---|
口③口③ |②---|
口②②② |③---|
口口①口 |----|
60
口口口① |①---|
②口口口 |②---|
③④口口 |③---|
①③②口 |④---|
61
①④③口 |①---|
口②口② |----|
口口⑤口 |②---③-|
口口口① |④---⑤-|
62
①口口① |①---|
④口②④ |②---③-|
口口⑥⑤ |④---|
⑤③口口 |⑤---⑥-|
63
口④①口 |①---|
③口口③ |②---③-|
口②⑤口 |----|
口口口口 |④---⑤-|
64
①口口① |①---|
④口②④ |②---③-|
口口口⑤ |④---|
⑤③⑥口 |⑤---⑥-|
65
③口口③ |①---|
口①口口 |②---③-|
口口②口 |----|
口口口口 |----|
66
口口口⑤ |①---②-|
口①口④ |--③---|
口③口⑤ |④---|
口②③① |⑤---|
67
①③②口 |①---②-|
⑤口③口 |--③---|
④口①口 |④---|
⑤口口口 |⑤---|
68
口③口口 |①---|
口口口③ |②---|
口①口① |----|
口②②② |③---|
69
②口口② |①---|
①①①口 |----|
②口口② |②---|
口口口口 |----|
70
口④⑤④ |①---|
口口③口 |②---③-|
口①⑥口 |④---|
口口②口 |⑤---⑥-|
71
口口口⑥ |①---|
⑥口⑤④ |②---③-|
口②口口 |----④-|
③①③① |⑤---⑥-|
72
③④③口 |----|
口②口口 |①---②-|
口⑤口口 |③---|
口①口口 |④---⑤-|
73
口口口口 |①---|
④⑤口口 |②---③-|
口口②口 |----④-|
①③①③ |⑤---|
74
口③④② |①---|
口口②① |②---|
口口口口 |③---|
口口口口 |④---|
75
口口口口 |①---|
口口口口 |②---|
①③②口 |③---|
口①④口 |④---|
76
口口口口 |①---|
口口口口 |②---|
③口④③ |③---|
①②口① |④---|
77
④口口④ |①---|
①②③① |②---③-|
口口⑥⑤ |④---⑤-|
口口口口 |⑥---|
78
口④⑤④ |①---|
口口③口 |②---③-|
口①⑥口 |④---|
口口②口 |⑤---⑥-|
79
口口口⑥ |①---|
⑥口⑤④ |②---③-|
口②口口 |----④-|
③①③① |⑤---⑥-|
80
③④③口 |----|
口②口口 |①---②-|
口⑤口口 |③---|
口①口口 |④---⑤-|
81
口口口口 |①---|
口口⑤④ |②---③-|
口口②口 |----④-|
①③①③ |⑤---|
82
口②③① |①---②-|
口③口⑤ |--③---|
口①口④ |④---|
口口口⑤ |⑤---|
83
口口口口 |①---②-|
④口①口 |--③---|
口口③口 |④---|
①③②口 |----|
84
口①口① |①---|
口②②② |②---|
口口③口 |----|
口口口③ |③---|
85
②口口② |①---|
口口口口 |----|
②口口② |②---|
①①①口 |----|

不確定度: 0

最終更新:2014年12月11日 22:29