Cleopatrysm
ピラミッ℃

ADVANCED

Level: 8
BPM: 190
Notes: 570

1
口口口口 |----|
口口口口 |----|
口口口口 |----|
口口口口 |----|
2
口口口口 |----|
口口口口 |----|
口③口口 |--①-|
口①②口 |②-③-|
3
⑦口①④ |①-②-|
口口口口 |③-④-|
③口口⑥ |--⑤-|
②口口⑤ |⑥-⑦-|
4
口口口口 |--①-|
口口口口 |②-③-|
⑤②①④ |--④-|
口口③⑥ |⑤-⑥-|
5
口⑤④口 |①-②-|
口③⑥口 |③-④-|
口⑦②口 |--⑤-|
口①口口 |⑥-⑦-|
6
④口口口 |①-②-|
口口口口 |③-④-|
⑦口③口 |--⑤-|
⑤②①⑥ |⑥-⑦-|
7
⑦口①④ |①-②-|
口口口口 |③-④-|
口③⑥口 |--⑤-|
口②⑤口 |⑥-⑦-|
8
口口口口 |--①-|
口口口口 |②-③-|
②⑤④① |--④-|
口口⑥③ |⑤-⑥-|
9
①口口口 |①-②-|
①口口③ |③-④-|
④口口②
④口口口

⑦⑦⑦⑦
口口口口
口⑥⑤口 |--⑤-|
口口口口 |⑥-⑦-|
10
口口口口 |----|
口口口口 |--①-|
口口口口 |----|
口口②① |②---|
11
口口⑤口 |①---|
口④口口 |--②-|
②口③口 |--③-|
①口口口 |④-⑤-|
12
口④口口 |----|
口口③口 |--①-|
口②口口 |--②-|
口口口① |③-④-|
13
口口⑤口 |--①-|
口④口口 |--②-|
口口③① |--③-|
②口口口 |④-⑤-|
14
口②口④ |--①-|
口口③口 |--②-|
①口口口 |--③-|
口口口口 |--④-|
15
口②口口 |----|
口口③口 |--①-|
口④口口 |--②-|
口口口① |③-④-|
16
口口⑤口 |----|
口④口口 |--①-|
口口③口 |②-③-|
口②口① |④-⑤-|
17
①②口口 |----|
口口口口 |①-②-|
③④口口 |----|
口口口口 |③-④-|
18
口③③③ |--①-|
口口②② |--②-|
口口口① |--③-|
口口口口 |----|
19
口口⑤口 |①---|
口④口口 |--②-|
口口③口 |--③-|
②①①口 |④-⑤-|
20
口④口口 |----|
口口③口 |--①-|
口②口口 |--②-|
口口口① |③-④-|
21
口口④口 |----|
口③口口 |--①-|
口口②口 |--②-|
口口口① |③-④-|
22
口②口④ |--①-|
口口③口 |--②-|
①口口口 |--③-|
口口口口 |--④-|
23
口②口口 |----|
口口③口 |--①-|
口④口口 |--②-|
口口口① |③-④-|
24
口⑥⑤口 |----|
口④口口 |①-②-|
口口③口 |③-④-|
口②口① |⑤-⑥-|
25
口口口口 |①---|
③口①⑤ |②-③-|
②口口④ |--④-|
口口口口 |⑤---|
26
口口口口 |----|
口口口口 |①---|
口②口口 |----|
①④③口 |②-③-④-|
27
口⑫⑦口 |①-②-③-|
⑥⑧①⑪ |④-⑤-⑥-|
②⑩⑨⑤ |⑦-⑧-⑨-|
④口口③ |⑩-⑪-⑫-|
28
⑥口⑦① |①-②-③-|
⑧口⑤⑪ |④-⑤-⑥-|
②⑫口⑨ |⑦-⑧-⑨-|
④⑩口③ |⑩-⑪-⑫-|
29
⑥口口⑤ |①-②-③-|
口④⑦口 |④-⑤-⑥-|
口口③口 |⑦---|
②口①口 |----|
30
口①口口 |①---|
①②②口 |----|
口②②口 |②---|
口口口口 |----|
31
口口口口 |①-②-|
口④口口 |③---|
④④口口 |④---|
口③②① |----|
32
口口①口 |①---|
③口口① |--②-|
②口口口 |③---|
口口口口 |----|
33
口口口口 |①-②-|
口口④口 |③---|
口口④④ |④---|
①②③口 |----|
34
口口口口 |①---|
口②②口 |----|
①②②口 |②---|
口①口口 |----|
35
口③②① |①-②-|
④④口口 |③---|
口④口口 |④---|
口口口口 |----|
36
口口口口 |①---|
口②②口 |----|
口②②① |②---|
口口①口 |----|
37
①②③口 |①-②-|
口口④④ |③---|
口口④口 |④---|
口口口⑤ |⑤---|
38
①②口口 |①---|
口口②口 |----|
①②口口 |②---|
口口②口 |----|
39
口口口口 |①-②-|
口④④口 |③---|
口④②① |④---|
口③口口 |----|
40
口口②① |①---|
口②口口 |----|
口口②① |②---|
口②口口 |----|
41
口口口口 |①-②-|
口④④口 |③---|
①②④口 |④---|
口口③口 |----|
42
口②口口 |①---|
①口②口 |----|
口②口口 |②---|
①口②口 |----|
43
口口③口 |①-②-|
①②④口 |③---|
口④④口 |④---|
口口口口 |----|
44
口①口口 |①---|
口口口① |----|
①口口口 |----|
口口①口 |----|
45
口口口口 |----|
口③口口 |----|
口①②口 |--①-|
口口口口 |②-③-|
46
口③①口 |①---|
③口口① |--②-|
口口口② |----|
口口②口 |③---|
47
①口口③ |--①-|
④①口口 |----|
口口口⑤ |②-③-|
口②口口 |④-⑤-|
48
口口口③ |①---|
口口③口 |--②-|
口①②口 |----|
①口口② |③---|
49
①②口口 |--①-|
②①口口 |----|
口④③口 |②---|
口口口口 |③-④-|
50
口口①口 |①---|
口口口① |--②-|
③口口② |----|
口③②口 |③---|
51
口①口口 |--①-|
①口口口 |----|
口②⑤口 |②-③-|
口④③口 |④-⑤-|
52
①口口口 |①---|
口①口口 |--②-|
口②③口 |----|
②口口③ |③---|
53
口口口① |--①-|
③口①④ |----|
口口口② |②-③-|
口③④口 |-④--|
54
口①①口 |①---|
口①①口 |--②-|
③口口② |----|
口口口口 |--③-|
55
口口①口 |--①-|
口②⑥口 |②-③-|
口⑤③口 |--④-|
口口④口 |⑤-⑥-|
56
①口③口 |①-②-|
口②口④ |③-④-|
⑤口⑦口 |--⑤-|
口⑥口口 |⑥-⑦-|
57
口④口口 |①-②-|
③口口口 |③-④-|
口②⑥口 |--⑤-|
①⑦口⑤ |⑥-⑦-|
58
口⑦①④ |①-②-|
⑦口④① |③-④-|
③口口⑥ |--⑤-|
②口口⑤ |⑥-⑦-|
59
口口口口 |--①-|
口口口口 |②-③-|
⑤②①④ |--④-|
口口③⑥ |⑤-⑥-|
60
①口口口 |①-②-|
口口③口 |③-④-|
口口②口
④口口口

⑦口口⑦
口⑤口口
口⑥口口 |--⑤-|
口口口口 |⑥-⑦-|
61
口口口口 |----|
口口口口 |----|
口口口口 |①---|
口②①口 |②---|
62
口⑦①④ |①-②-|
⑦口④① |③-④-|
③口口⑥ |--⑤-|
②口口⑤ |⑥-⑦-|
63
口口口口 |--①-|
口口口口 |②-③-|
⑤②①④ |--④-|
口口③⑥ |⑤-⑥-|
64
口⑤④口 |①-②-|
口③⑥口 |③-④-|
口⑦②口 |--⑤-|
口①口口 |⑥-⑦-|
65
④口口口 |①-②-|
口口口口 |③-④-|
⑦口③口 |--⑤-|
⑤②①⑥ |⑥-⑦-|
66
口⑦①④ |①-②-|
⑦口④① |③-④-|
口③⑥口 |--⑤-|
口②⑤口 |⑥-⑦-|
67
口口口口 |--①-|
口口口口 |②-③-|
②⑤④① |--④-|
口口⑥③ |⑤-⑥-|
68
①口口口 |①-②-|
①口口③ |③-④-|
④口口②
④口口口

⑦⑦⑦⑦
口口口口
口⑥⑤口 |--⑤-|
口口口口 |⑥-⑦-|
69
口口口口 |----|
口口口口 |----|
口口口② |①---|
口口口① |②---|
70
①口①口 |①---|
口①口① |----|
口口口③ |②---|
②口口口 |--③-|
71
口④口④ |①-②-|
④口④口 |③---|
③②①口 |④---|
口口口口 |----|
72
②口②口 |①---|
口②口② |----|
③口口口 |②---|
口口口① |--③-|
73
口④口④ |①-②-|
④口④口 |③---|
口①②③ |④---|
口口口口 |----|
74
②②②口 |①---|
口②口② |----|
口口口③ |②---|
①口口口 |--③-|
75
口④④④ |①-②-|
④口④口 |③---|
③②①口 |④---|
口口口口 |----|
76
②②口② |①---|
口②②口 |----|
③口口口 |②---|
口口口① |--③-|
77
口口口口 |①-②-|
口口口口 |③-④-|
⑧①②③ |⑤-⑥-|
⑦⑥⑤④ |⑦-⑧-|
78
②②②② |①---|
②口口② |----|
口①口③ |②---|
口口口口 |--③-|
79
④④④④ |①-②-|
口④口④ |③---|
③②①口 |④---|
口口口口 |----|
80
②②②② |①---|
②口②口 |----|
③口口口 |②---|
口口口① |--③-|
81
④口④口 |①-②-|
④④④④ |③---|
口①②③ |④---|
口口口口 |----|
82
②口口② |①---|
②②②② |----|
口口口③ |②---|
①口口口 |--③-|
83
④④④④ |①-②-|
④④④④ |③---|
③②①口 |④---|
口口口口 |----|
84
口口口口 |①-②-|
口口口口 |③-④-|
⑧⑥④② |⑤-⑥-|
⑦⑤③① |⑦-⑧-|
85
⑧⑥④② |①-②-|
口口口口 |③-④-|
口口口口 |⑤-⑥-|
⑦⑤③① |⑦-⑧-|
86
口⑤口① |①-②-|
⑦口③口 |③-④-|
口⑥口② |⑤-⑥-|
⑧口④口 |⑦-⑧-|
87
①口⑤口 |①-②-|
口③口⑦ |③-④-|
②口⑥口 |⑤-⑥-|
口④口⑧ |⑦-⑧-|
88
口⑤口① |①-②-|
⑦口③口 |③-④-|
口⑥口② |⑤-⑥-|
⑧口④口 |⑦-⑧-|
89
①口⑤口 |①-②-|
口③口⑦ |③-④-|
②口⑥口 |⑤-⑥-|
口④口⑧ |⑦-⑧-|

不確定度: 0

最終更新:2014年12月11日 23:34