Metric
Hommarju

ADVANCED

Level: 7
BPM: 123
Notes: 425

1
口口口口 |----|
口口口口 |----|
口口口口 |----|
口口口口 |----|
2
①口口口 |①---|
口口口口 |----|
口口口口 |----|
口口口口 |----|
3
口口口口 |①---|
口口口① |----|
口口口口 |----|
口口口口 |----|
4
口口口口 |①---|
口口口口 |----|
①口口口 |----|
口口口口 |----|
5
口口口口 |①---|
口口口口 |----|
口②口口 |②---|
口口口① |----|
6
口①①口 |①---|
②①①② |----|
②口口② |②---|
口口口口 |----|
7
口②口口 |①---|
口口口口 |--②-|
口①①口
口①①口

口口③口
口④⑤口
口⑥口口 |③-④-|
口口口口 |⑤-⑥-|
8
口口口口 |①---|
口②②口 |----|
①②②① |②---|
①口口① |----|
9
①③②① |①---|
①⑤④① |--②-|
口口⑥口 |③-④-|
口口口口 |⑤-⑥-|
10
口②②口 |①---|
①②②① |----|
①口口① |②---|
口口口口 |----|
11
②口口③ |①---|
④口口⑤ |--②-|
⑥①①口 |③-④-|
口①①口 |⑤-⑥-|
12
口口口口 |①---|
②口口② |----|
②①①② |②---|
口①①口 |----|
13
①口口① |①---|
口①①口 |----|
②口口③ |②-③-|
④口口⑤ |④-⑤-|
14
口口②③ |①---|
口口①④ |②---|
④①口口 |③---|
③②口口 |④---|
15
②③④口 |①---|
①口口口 |②---|
口口口① |③---|
口④③② |④---|
16
⑧口口① |①-②-|
⑥口口③ |③-④-|
④口口⑤ |⑤-⑥-|
②口口⑦ |⑦-⑧-|
17
②口口② |①---|
口①①口 |----|
口①①口 |----|
口口口口 |②---|
18
口口口口 |①-②-|
口①④④ |③---|
⑤⑤②口 |④---|
口③口⑥ |⑤-⑥-|
19
⑤口口④ |①-②-|
⑤口口④ |③---|
口口口口 |④---|
①②③口 |⑤---|
20
口①①口 |①---|
口①①② |②-③-|
口口③口
口口口口

⑤口口口
口口⑥口
口口口口 |④---|
口④口口 |⑤-⑥-|
21
口口口口 |①-②-|
④③口⑤ |③---|
④①口⑤ |④---|
口口口② |⑤---|
22
口口口口 |①---|
口②口口 |②-③-|
口口③口 |④---|
口①①④ |----|
23
①①口口 |①---|
⑤口②④ |②-③-|
⑤③口④ |④---|
口口口口 |⑤---|
24
⑤口口④ |①---|
口口③口 |②-③-|
口②口口 |④---|
口①①口 |⑤---|
25
口口口口 |①-②-|
口⑥⑥口 |③-④-|
④③②① |⑤---|
口⑤⑤口 |⑥---|
26
①口口① |①---|
②口口② |----|
口口口口 |②---|
口口口口 |----|
27
口口口口 |----|
口口口口 |----|
口①②口 |①---|
口①②口 |②---|
28
口口口口 |①---|
口①①口 |----|
口口口口 |----|
口口口口 |----|
29
②口口③ |①---|
口口口口 |----|
②口口③ |②---|
①口口① |③---|
30
口②③口 |①---|
④①①⑤ |②-③-|
口⑥⑦口 |④-⑤-|
口口口口 |⑥-⑦-|
31
③口口② |①---|
口⑤④口 |②-③-|
⑦口口⑥ |④-⑤-|
①①口口 |⑥-⑦-|
32
口②③口 |①---|
④口口⑤ |②-③-|
口⑥⑦口 |④-⑤-|
口口①① |⑥-⑦-|
33
口⑤⑥口 |①-②-|
口⑤⑥口 |③-④-|
口口口口 |⑤---|
①②③④ |⑥---|
34
①口口① |①---|
口②口口 |--②-|
口口口③ |----|
口口③口 |③---|
35
口口口口 |①---|
口②口口 |----|
①口口口 |----|
口①口口 |--②-|
36
口②①口 |①---|
②口口① |②---|
口③口口 |----|
口口口口 |--③-|
37
口口口口 |①---|
口口口口 |②---|
②口口① |----|
口②①口 |----|
38
②口③口 |①---|
口①①③ |--②-|
口口口口 |----|
口口口口 |③---|
39
口口口口 |①---|
口口①口 |②-③-|
口口②① |----|
③口口② |----|
40
口①口口 |①---|
①②口口 |②-③-|
②④口③ |----|
口口口口 |--④-|
41
口口①口 |①---|
口口口口 |②---|
口口口口 |----|
口口口② |----|
42
②④口③ |①---|
①⑤⑤① |---②|
①⑤⑤① |--③-|
口口口口 |-④-⑤|
43
口口口口 |----|
口口口口 |----|
②口口① |①---|
②②①① |②---|
44
口口口② |①---|
口①①口 |---②|
口①①口
口口口口

③口④口
口⑤⑤口
口⑤⑤口 |--③-|
口口口口 |-④-⑤|
45
口口口口 |----|
口口口口 |----|
①口口② |①---|
①①②② |②---|
46
②口口口 |①---|
口①①口 |---②|
口①①口
口口口口

口④口③
口⑤⑤口
口⑤⑤口 |--③-|
口口口口 |-④-⑤|
47
②口口③ |----|
②口口③ |①---|
②口口③ |②---|
口口口① |③---|
48
口①①口 |①---|
口①①口 |---②|
口口口口
口口口②

口口口口
口⑤⑤口
口⑤⑤口 |--③-|
③口④口 |-④-⑤|
49
③③②② |----|
③口口② |①---|
口口口口 |②---|
①口口口 |③---|
50
口口口口 |①---|
④②①③ |②---|
③①②④ |③---|
口口口口 |④---|
51
④②①③ |①---|
口口口口 |②---|
口口口口 |③---|
③①②④ |④---|
52
⑦口口⑥ |①-②-|
口③②口 |③-④-|
口①④口 |⑤-⑥-|
⑤口口⑧ |⑦-⑧-|
53
口口口口 |①---|
②①①② |----|
②①①② |----|
口口口口 |②---|
54
①口⑤口 |①-②-|
口②口⑥ |③-④-|
口口③⑦ |⑤-⑥-|
④口⑧口 |⑦-⑧-|
55
⑤口④⑥ |①-②-|
⑤③口⑥ |③-④-|
口①②口 |⑤---|
口口口口 |⑥---|
56
口①①口 |①---|
②①①⑦ |②-③-|
口③⑥口 |④-⑤-|
口⑤④口 |⑥-⑦-|
57
①口③⑧ |①-②-|
⑤②④口 |③-④-|
口口口口 |⑤-⑥-|
⑥口⑦口 |⑦-⑧-|
58
口②口口 |①-②-|
口口③口 |③-④-|
①①①①
口口口④

口口口口
⑤口口口
口⑥口⑧ |⑤-⑥-|
口口⑦口 |⑦-⑧-|
59
口口①① |①-②-|
口②口口 |③-④-|
口口④口
口③口口

⑤口口⑥
⑤口口⑥
口口口口 |⑤---|
口口口口 |⑥---|
60
口口口口 |①-②-|
口①①口 |③-④-|
口①①口
②③④口

口口⑥口
⑦⑦口口
口口口口 |⑤-⑥-|
口口口⑤ |⑦---|
61
④④④④ |①---|
口口①① |--②-|
口②口口 |③---|
③③③③ |④---|
62
口口口口 |①---|
口①①口 |----|
口①①口 |----|
口口口口 |----|

不確定度: 0

最終更新:2014年12月11日 23:27