ごめんなさいのKissing You
E-Girls

EXTREME

Level: 7
BPM: 143
Notes: 500

1
口口口口 |----|
口口口口 |----|
口口口口 |----|
口口口口 |----|
2
⑥口⑦⑦ |①-②-|
口②③③ |③-④-|
④口⑤口 |⑤-⑥-|
口⑧口① |⑦-⑧-|
3
口⑥⑦⑦ |①-②-|
②口③③ |③-④-|
口④⑤口 |⑤-⑥-|
⑧口口① |⑦-⑧-|
4
⑥口⑦⑦ |①-②-|
口②③③ |③-④-|
④口⑤口 |⑤-⑥-|
口⑧口① |⑦-⑧-|
5
口⑥⑦⑦ |①-②-|
②口③③ |③-④-|
口④⑤口 |⑤-⑥-|
⑧口口① |⑦-⑧-|
6
口口口③ |①---|
④口口③ |--②-|
口②口口 |③---|
口①①口 |--④-|
7
①③口口 |--①-|
口⑤②口 |②-③-|
口⑦⑥④ |④-⑤-|
口口口口 |⑥-⑦-|
8
口口③③ |①---|
口口口① |--②-|
②口口口 |③---|
口④口口 |--④-|
9
⑤⑤②口 |--①-|
口①⑥⑥ |②-③-|
③③④④ |④-⑤-|
口口口口 |⑥---|
10
②口口口 |①---|
口④口③ |--②-|
口口③口 |③---|
口口①口 |--④-|
11
①口口口 |--①-|
口⑤②口 |②-③-|
③口⑥口 |④-⑤-|
⑦口④口 |⑥-⑦-|
12
口③口口 |①---|
口口④① |②---|
口⑤口② |③-④-|
口口⑥口 |⑤-⑥-|
13
①口口② |--①-|
③口口④ |②-③-|
口⑤⑥口 |④-⑤-|
口口口口 |⑥---|
14
⑤口口④ |①-②-|
⑥③口④ |--③-|
⑥③口① |④-⑤-|
②口①口 |--⑥-|
15
口③②口 |--①-|
口③②口 |②-③-|
口①口口
口①口口

⑤口口口
⑤口口口
口⑦⑥④ |④-⑤-|
口⑦⑥④ |⑥-⑦-|
16
⑥②④④ |①-②-|
⑥⑤①① |--③-|
③口口口 |④-⑤-|
③口口口 |--⑥-|
17
口⑤⑥口 |--①-|
⑤③口④ |②-③-|
口③⑥④ |④-⑤-|
①①②② |⑥---|
18
③口口口 |①-②-|
口⑥①④ |--③-|
③⑥④口 |④-⑤-|
②⑤①口 |--⑥-|
19
①①⑥② |--①-|
③⑤②口 |②-③-|
③⑤⑥④ |④-⑤-|
⑦⑦④口 |⑥-⑦-|
20
口口⑧⑦ |①-②-|
口口⑥⑤ |③-④-|
口口④③ |⑤-⑥-|
口口②① |⑦-⑧-|
21
③口口④ |--①-|
①①②② |--②-|
口①②口 |--③-|
口口口口 |④---|
22
口口⑥口 |①-②-|
①口②口 |③-④-|
口③口④ |--⑤-|
口口⑤口 |--⑥-|
23
口口口口 |①-②-|
口②⑥① |③-④-|
④⑥③口 |--⑤-|
口⑤口口 |--⑥-|
24
③⑤④② |①---|
口①口口 |②-③-|
口口①口 |--④-|
②④⑤③ |⑤---|
25
⑤口口⑤ |①-②-|
②④③① |--③-|
①③④② |④---|
口口口口 |⑤---|
26
口口⑥口 |①-②-|
①口②口 |③-④-|
口③口④ |--⑤-|
口口⑤口 |--⑥-|
27
口口口口 |①-②-|
口②⑥① |③-④-|
④⑥③口 |--⑤-|
口⑤口口 |--⑥-|
28
③⑤④② |①---|
口①口口 |②-③-|
口口①口 |--④-|
②④⑤③ |⑤---|
29
④口口口 |①-②-|
②口⑤① |--③-|
①③③② |④-⑤-|
⑥口口口 |⑥---|
30
口①④口 |①-②-|
②口口① |③-④-|
口③③口
口口②口

⑤口口⑤
口⑤⑤⑥
⑤⑦口⑤ |⑤---|
⑦口口⑥ |⑥-⑦-|
31
②口口口 |--①-|
①④③口 |--②-|
②口口口 |--③-|
口①口口 |④---|
32
口口口口 |①-②-|
④④口口 |③-④-|
②②③③
口口①①

口口⑤⑤
口口口⑥
⑦口口口 |⑤---|
口口口⑥ |⑥-⑦-|
33
③③口口 |--①-|
①①④④ |②-③-|
口⑤②⑥ |④-⑤-|
口⑤②⑥ |⑥---|
34
口口①口 |①---|
口①③③ |②-③-|
口口①③
②口口口

口口口口
口口口口
④口⑤口 |--④-|
⑥口口口 |⑤-⑥-|
35
口口口① |①---|
②①③③ |②-③-|
口口③①
口口口口

口口口口
口口口口
④口口⑤ |--④-|
⑥口口口 |⑤-⑥-|
36
口口③口 |①-②-|
口口①① |③---|
口口③口
口②口口

⑤口口④
口口⑥口
口口口④ |④-⑤-|
口口⑥口 |⑥---|
37
口口③③ |①---|
口口口① |②-③-|
口②②口
口口口①

口口口口
④④⑦口
口口口⑤ |④-⑤-|
⑥⑥口⑤ |⑥-⑦-|
38
口①④口 |①-②-|
②口口① |③-④-|
口③③口
口口②口

⑤口口⑤
口⑤⑤⑥
⑤⑦口⑤ |⑤---|
⑦口口⑥ |⑥-⑦-|
39
②口口口 |--①-|
①④③口 |--②-|
②口口口 |--③-|
口①口口 |④---|
40
口口口口 |①-②-|
④④口口 |③-④-|
②②③③
口口①①

口口⑤⑤
口口口⑥
⑦口口口 |⑤---|
口口口⑥ |⑥-⑦-|
41
③③口口 |--①-|
①①④④ |②-③-|
口⑤②⑥ |④-⑤-|
口⑤②⑥ |⑥---|
42
①口口② |①---|
①口口② |--②-|
④②①③ |----|
口②①口 |③-④-|
43
①口口① |①---|
口②②口 |--②-|
口①①口
②口口②

口口口口
口口口口
③⑤口④ |--③-|
口口口口 |④-⑤-|
44
口口③口 |①-②-|
口④①① |③-④-|
口口③口
口②口口

口口口⑤
⑥口⑦口
⑧口口⑤ |⑤-⑥-|
口口⑦口 |⑦-⑧-|
45
口口③③ |①---|
口口口① |②-③-|
口②②口
口口口①

口口口口
④④⑦口
口口口⑤ |④-⑤-|
⑥⑥口⑤ |⑥-⑦-|
46
口口②② |①---|
口口口口 |--②-|
①①③③ |----|
口口口口 |③---|
47
口①口口 |①---|
①口口② |--②-|
③口②口 |----|
口③口口 |③---|
48
口②①口 |①---|
②口①口 |----|
口口口口 |----|
口口口口 |②---|
49
④口口口 |①---|
口口③③ |②-③-|
口②口① |----|
口口①口 |④---|
50
口口口口 |①---|
口②口① |--②-|
口口口口
②口①口

口口口口
口口口口
口口口口 |----|
口口③③ |③---|
51
②口①① |①---|
口口口口 |--②-|
口②口口
口口口口

口口口③
口口③口
口口口口 |----|
口口口口 |③---|
52
口④④口 |①---|
口⑤⑤③ |②---|
②口口口 |③---|
口口口① |④-⑤-|
53
③口口③ |①---|
口口口口 |②-③-|
口①①口
②口口口

口口口口
口④⑤口
口④⑤口 |----|
口口口口 |④-⑤-|
54
口口口④ |①---|
③口口口 |②---|
口口口② |③---|
①口口口 |④---|
55
⑦⑦⑧⑧ |①-②-|
⑤⑤⑥⑥ |③-④-|
③③④④ |⑤-⑥-|
①①②② |⑦-⑧-|
56
口口口口 |①---|
口口口口 |----|
口①①口 |----|
口口口口 |----|

不確定度: 0

最終更新:2014年12月12日 00:07