ロ畢ロ畢ロ畢 -Bi Bi Bi-
謝金燕 -Jeannie Hsieh-

EXTREME

Level: 8
BPM: 142
Notes: 622

1
口口口口 |----|
口口口口 |----|
口口口口 |----|
口口口口 |----|
2
口⑧⑦口 |①-②-|
⑥口口⑤ |③-④-|
口④③口 |⑤-⑥-|
②口口① |⑦-⑧-|
3
⑧口⑤⑦ |①-②-|
口⑥⑦口 |③-④-|
④口⑤③ |⑤-⑥-|
口②①口 |⑦-⑧-|
4
口⑧⑦口 |①-②-|
⑥口口⑤ |③-④-|
④口口③ |⑤-⑥-|
口②①口 |⑦-⑧-|
5
⑧口口⑦ |①-②-|
口⑥⑤口 |③-④-|
口④③⑦ |⑤-⑥-|
②口⑤① |⑦-⑧-|
6
口口①口 |①-②-|
口口③① |③-④-|
④口③口
②口口口

⑧口口⑦
⑥口口⑦
口口口⑤ |⑤-⑥-|
口口⑤口 |⑦-⑧-|
7
口口口口 |①-②-|
口口①口 |③-④-|
④口①③
②口口③

⑧口⑤口
⑥口⑦⑤
口口⑦口 |⑤-⑥-|
口口口口 |⑦-⑧-|
8
口口③口 |①-②-|
口④口③ |③-④-|
④②口①
②口①口

⑧口口⑤
⑥口⑤口
口口口口 |⑤-⑥-|
口口⑦⑦ |⑦-⑧-|
9
⑯②①⑮ |①②③④|
⑭④③⑬ |⑤⑥⑦⑧|
⑫⑥⑤⑪ |⑨⑩⑪⑫|
⑩⑧⑦⑨ |⑬⑭⑮⑯|
10
口①口口 |①---|
口①①口 |----|
口①①口 |----|
口口口口 |----|
11
⑦口⑧口 |①-②-|
⑤口⑦② |③-④-|
③口⑥③ |⑤-⑥-|
①口⑤④ |⑦-⑧-|
12
口口口口 |①-②-|
口口口口 |③-④-|
口③④③
口①②①

口口⑧⑥
口口口口
⑤口口口 |⑤-⑥-|
口⑦口口 |⑦-⑧-|
13
⑦口⑧口 |①-②-|
⑤口⑦② |③-④-|
③口⑥③ |⑤-⑥-|
①口⑤④ |⑦-⑧-|
14
口口⑧⑥ |①-②-|
⑦口口口 |③-④-|
口③④② |⑤-⑥-|
⑤①③① |⑦-⑧-|
15
⑧口口⑦ |①-②-|
⑦②口⑤ |③-④-|
⑥口口③ |⑤-⑥-|
口④口① |⑦-⑧-|
16
⑥口⑧口 |①-②-|
口口口⑦ |③-④-|
③④③⑤ |⑤-⑥-|
①②①口 |⑦-⑧-|
17
⑦①口⑥ |①-②-|
⑥②口⑤ |③-④-|
口③口③ |⑤---|
⑤④口① |⑥-⑦-|
18
口口⑥口 |①-②-|
口口⑤口 |③-④-|
①②③口 |⑤---|
③④①口 |⑥---|
19
⑩⑪⑫口 |①②③-|
口⑨⑧⑦ |④⑤⑥-|
④⑤⑥口 |⑦⑧⑨-|
口③②① |⑩⑪⑫-|
20
口口口① |①-②-|
②口口口 |③-④-|
口④①③
④②③口

口⑦⑥口
⑧口口⑤
口口口口 |⑤-⑥-|
口口口口 |⑦-⑧-|
21
口⑫⑪⑩ |①②③-|
⑦⑧⑨口 |④⑤⑥-|
口⑥⑤④ |⑦⑧⑨-|
①②③口 |⑩⑪⑫-|
22
①口口口 |①-②-|
口口口② |③-④-|
③①④口
口③②④

口⑥⑦口
⑤口口⑧
口口口口 |⑤-⑥-|
口口口口 |⑦-⑧-|
23
④④口口 |①②③-|
口口口口 |④⑤⑥-|
口⑥⑤口
①②③口

口口⑦⑦
口⑧⑨口
口口口口 |⑦⑧⑨-|
口⑫⑪⑩ |⑩⑪⑫-|
24
⑧④③⑤ |①-②-|
②⑦⑥① |③-④-|
②④③① |⑤-⑥-|
口口口口 |⑦-⑧-|
25
⑩⑪⑫口 |①②③-|
口⑨⑧⑦ |④⑤⑥-|
④⑤⑥口 |⑦⑧⑨-|
口③②① |⑩⑪⑫-|
26
口口口口 |①-②-|
①④④② |③-④-|
口③③口 |----|
①口口② |----|
27
口口口口 |①---|
①口②口 |②---|
①①②②
①①②②

③口口⑥
④④口口
⑤⑤口口 |③-④-|
口口口口 |⑤-⑥-|
28
口③①⑥ |①-②-|
口口④② |③-④-|
口口口⑤ |⑤---|
口口口口 |⑥---|
29
口口口口 |①---|
①口②口 |②---|
①①②②
①①②②

③口口口
④④口口
⑤⑤口口 |③-④-|
口口口口 |⑤---|
30
口口口口 |①-②-|
口④口口 |③-④-|
口口③②
①①①①

⑤口口口
口口口口
口口口口 |⑤---|
口⑥⑥口 |⑥---|
31
③④①② |①-②-|
④③②① |③-④-|
⑥⑤⑤⑥ |⑤-⑥-|
⑦口口⑦ |⑦---|
32
口口④口 |①-②③|
口③②口 |④-⑤-|
⑤口口口
口①①口

⑧口口口
口口口口
口口口⑥ |⑥---|
口⑦⑦口 |⑦-⑧-|
33
⑧⑥③① |①-②-|
⑧⑥③① |③-④⑤|
口⑤口口 |⑥-⑦-|
⑨⑦④② |⑧-⑨-|
34
口口②① |①---|
口口②① |②---|
口口②①
口口口口

④③⑤口
④③口口
④③口口 |③---|
口口口口 |④-⑤-|
35
⑦口口⑦ |①-②-|
⑥⑤⑤⑥ |③-④-|
④③②① |⑤-⑥-|
③④①② |⑦---|
36
口①①口 |①-②③|
⑤口口口 |④-⑤-|
口③②口
口口口④

口⑦⑦口
口口口⑥
口口口口 |⑥---|
口口口口 |⑦---|
37
口口口口 |①---|
①口②口 |②---|
①①②②
①①②②

③口口口
④④口口
⑤⑤口口 |③-④-|
口口口口 |⑤---|
38
⑤⑤⑤⑤ |①---|
口④④口 |②---|
③口口③ |③---|
②①①② |④-⑤-|
39
口⑧⑦口 |①-②-|
⑥⑧⑤③ |③-④-|
口④⑤口 |⑤-⑥-|
②④①① |⑦-⑧-|
40
口口口口 |①-②-|
口口③③ |③-④-|
②④口口
口④①①

⑥口⑦⑦
⑥口口口
⑧口⑤⑤ |⑤-⑥-|
⑧口口口 |⑦-⑧-|
41
口口口口 |①-②-|
④④口口 |③-④-|
口②③口
口口①①

口口口口
口口口⑤
口⑧口⑤ |⑤-⑥-|
⑥⑧口⑦ |⑦-⑧-|
42
②④①① |①-②-|
口④⑤⑤ |③-④-|
⑧⑧③③ |⑤-⑥-|
⑥⑥⑦⑦ |⑦-⑧-|
43
②口①③ |①-②-|
口口③口 |③-④-|
口口口口
口④口口

口口⑦口
⑥⑧口⑦
口口⑤口 |⑤-⑥-|
口口口口 |⑦-⑧-|
44
⑥⑧⑦③ |①-②-|
口口③⑦ |③-④-|
②④⑤口 |⑤-⑥-|
口口口① |⑦-⑧-|
45
口口⑦③ |①-②-|
②④口口 |③-④-|
口口⑦③ |⑤-⑥-|
⑥⑧⑤① |⑦-⑧-|
46
②口口① |①---|
③口口口 |②-③-|
②口口①
口口口口

⑦口口⑥
口⑦⑥口
口⑤④口 |④-⑤-|
⑤口口④ |⑥-⑦-|
47
口③③口 |①-②-|
口口口口 |③-④-|
②口④①
口口口口

口口口口
口⑦⑦口
口⑤口⑧ |⑤-⑥-|
口口⑥口 |⑦-⑧-|
48
③口口⑦ |①-②-|
③口口⑦ |③-④-|
①⑤④⑧ |⑤-⑥-|
口口⑥② |⑦-⑧-|
49
口③③⑦ |①-②-|
③⑦⑦口 |③-④-|
①⑤④⑧ |⑤-⑥-|
口口⑥② |⑦-⑧-|
50
⑦③③口 |①-②-|
口⑦⑦③ |③-④-|
①⑤④⑧ |⑤-⑥-|
口口⑥② |⑦-⑧-|
51
⑦③③⑦ |①-②-|
③⑦⑦③ |③-④-|
①⑤④⑧ |⑤-⑥-|
口口⑥② |⑦-⑧-|
52
⑦③③⑦ |①-②-|
③⑦⑦③ |③-④-|
①⑤④⑥ |⑤-⑥-|
口口⑧② |⑦-⑧-|
53
⑦③③⑦ |①-②-|
③⑦⑦③ |③-④-|
③⑦⑥④ |⑤-⑥-|
①⑤⑧② |⑦-⑧-|
54
⑤③③④ |①-②-|
③口口③ |③-④-|
③口口③ |⑤---|
①口口② |----|
55
口①①口 |①---|
口①①① |----|
口①①① |----|
口①①① |----|

不確定度: 0

最終更新:2014年12月11日 23:30