キラーボール
ゲスの極み乙女。

EXTREME

Level: 9
BPM: 150
Notes: 689

1
口口口口 |----|
口口口口 |----|
口口口口 |----|
口口口口 |----|
2
口口①口 |①--②|
口④③① |----|
④②口③ |③--④|
②口口口 |----|
3
口②口口 |①--②|
②口口口 |----|
口口①口
口口口①

口口⑦⑥
口口⑤⑧
口④⑨口 |③④⑤⑥|
③⑩口口 |⑦⑧⑨⑩|
4
②④口⑤ |①-②-|
④②口口 |③④-⑤|
口口口③
口口①①

口口口口
口口⑨口
⑦⑥口口 |-⑥-⑦|
⑥⑦口⑧ |⑧-⑨-|
5
②④⑨口 |①-②-|
④②口口 |③④--|
⑦⑥⑤③ |⑤⑥-⑦|
⑥⑦①⑧ |⑧-⑨-|
6
②④口⑤ |①-②-|
④②⑨口 |③④-⑤|
⑦⑥口③ |-⑥-⑦|
⑥⑦①⑧ |⑧-⑨-|
7
②④⑨口 |①-②-|
④②口⑧ |③④--|
⑦⑥⑤③ |⑤⑥-⑦|
⑥⑦①口 |⑧-⑨-|
8
①①口口 |①-②-|
口③口口 |③④--|
口口④②
口口②④

口⑨⑦⑥
口口⑥⑦
⑧口口口 |⑤⑥-⑦|
⑤口口口 |⑧-⑨-|
9
口口口口 |①-②-|
③口口口 |③④--|
口口④②
口①②④

⑨口⑦⑥
口口⑥⑦
口口口口 |⑤⑥-⑦|
⑤⑧口口 |⑧-⑨-|
10
口口口口 |①-②-|
口③口口 |③④--|
①口④②
口口②④

口⑨⑦⑥
口口⑥⑦
⑧口口口 |⑤⑥-⑦|
⑤口口口 |⑧-⑨-|
11
口口口口 |①-②-|
③口口口 |③④--|
口口④②
口①②④

⑨⑨⑦⑥
口口⑥⑦
口口口口 |⑤⑥-⑦|
⑤⑧口口 |⑧-⑨-|
12
口口口口 |①-②-|
③口口口 |③④⑤-|
口②②④
⑤口①①

口⑩口口
口⑥⑦口
⑧口⑪口 |⑥⑦⑧⑨|
口口口⑨ |--⑩⑪|
13
③口口② |①②③④|
口⑦⑥口 |⑤⑥⑦⑧|
口口口④
⑤①⑧口

口口⑬⑬
⑪口口⑩
⑨口口口 |⑨⑩⑪⑫|
口口口⑫ |--⑬-|
14
④③口口 |①②③④|
口口⑥⑤ |⑤⑥⑦⑧|
口口②①
⑧⑦口口

⑬⑬口口
⑫⑪口口
口口口口 |⑨⑩⑪⑫|
口口⑩⑨ |--⑬-|
15
口口口口 |①-②③|
⑥⑦④⑤ |④⑤⑥⑦|
①①口口
②③口口

⑩⑪口口
口口口口
口⑫⑫口 |⑧⑨⑩⑪|
口口⑧⑨ |--⑫-|
16
口口①口 |①②③-|
②口口④ |④⑤⑥⑦|
⑤口口③
口⑦⑥口

⑩口口⑨
口⑫⑧口
口口口⑪ |⑧-⑨⑩|
口口口口 |--⑪⑫|
17
⑨⑦①⑩ |①②③④|
②⑪口⑤ |⑤⑥-⑦|
⑪口③口 |⑧-⑨⑩|
④⑥⑧口 |--⑪-|
18
口②⑦口 |①-②③|
⑥口口③ |④⑤⑥⑦|
口④①口
口口⑤①

⑫口口⑪
口口口口
⑩口口⑨ |⑧⑨⑩⑪|
口⑧口⑬ |-⑫⑬-|
19
⑦②⑥⑧ |①-②③|
口①①③ |④-⑤⑥|
⑤①①口 |⑦⑧⑨⑩|
⑨④口⑩ |----|
20
⑤⑤口口 |①-②-|
①⑩⑥② |③④-⑤|
口③④口 |-⑥⑦⑧|
⑦⑧⑨口 |⑨-⑩-|
21
⑥⑤⑤⑨ |①-②-|
②⑩⑩① |③④-⑤|
口④③⑦ |-⑥⑦⑧|
⑧口口口 |⑨-⑩-|
22
⑤⑩⑩⑥ |①-②-|
①口⑦② |③④-⑤|
⑤③④⑧ |-⑥⑦⑧|
口口⑨口 |⑨-⑩-|
23
⑤口口⑥ |①-②-|
①⑤⑥② |③④-⑤|
口③④口 |-⑥-⑦|
①⑦⑧② |⑧---|
24
⑤⑤口口 |①-②-|
①⑩⑥② |③④-⑤|
口③④口 |-⑥⑦⑧|
⑦⑧⑨口 |⑨-⑩-|
25
⑥⑤⑤⑨ |①-②-|
②⑩⑩① |③④-⑤|
口④③⑦ |-⑥⑦⑧|
⑧口口口 |⑨-⑩-|
26
⑤⑩⑩⑥ |①-②-|
①口⑦② |③④-⑤|
⑤③④⑧ |-⑥⑦⑧|
口口⑨口 |⑨-⑩-|
27
⑤口口⑥ |①-②-|
①⑤⑥② |③④-⑤|
口③④口 |-⑥-⑦|
①⑦⑧② |⑧---|
28
口①⑥⑥ |①-②-|
①⑤⑤口 |--③-|
③口②③ |--④-|
④④口② |⑤-⑥-|
29
①①口口 |--①-|
口口口② |--②-|
③口②④ |③-④-|
口③④口 |----|
30
口①口口 |①-②-|
①③③口 |--③-|
口口②口
口口口②

口⑥⑥口
口口口口
④口口⑤ |--④-|
口④⑤口 |⑤-⑥-|
31
口口口④ |--①-|
口②④② |--②-|
③①①口 |--③-|
口③口口 |-④--|
32
口①①口 |①-②-|
①口口口 |--③-|
③口②③
口口口②

口口⑥⑥
口⑤⑤口
口口口口 |--④-|
④④口口 |⑤-⑥-|
33
①①口口 |--①-|
口口口② |--②-|
③口②④ |③-④-|
口③④口 |----|
34
口①口口 |①-②-|
①③③口 |--③-|
口口②口
口口口②

口口④口
口口口口
口⑤⑥口 |--④-|
口口口口 |⑤-⑥-|
35
①⑤⑥② |①②③④|
⑬⑪⑫⑬ |⑤⑥⑦⑧|
⑬⑨⑩⑬ |⑨⑩⑪⑫|
⑦③④⑧ |⑬---|
36
①①①① |①---|
口口口口 |②-③-|
口②③口
②口口③

口口口⑥
口口⑤口
⑥口口口 |④---|
口④④口 |⑤-⑥-|
37
③②①④ |--①-|
口口口口 |--②-|
③口口④ |--③-|
①②口口 |④---|
38
口②⑦口 |①---|
⑥①①⑦ |②-③-|
口①①⑤ |④-⑤-|
④口口③ |⑥-⑦-|
39
口口口口 |--①-|
口①⑤口 |--②-|
②④①口 |--③-|
口②口③ |④-⑤-|
40
①口口① |①---|
口口口③ |②-③-|
②口③口
口②口口

⑦口④口
口⑤口口
口口口⑦ |④-⑤-|
⑥口口口 |⑥-⑦-|
41
口①②口 |--①-|
口⑤口口 |--②-|
口口④口 |--③-|
口③②① |④-⑤-|
42
⑥⑥口① |①---|
口口口口 |--②-|
②口口⑤ |③-④-|
口③④口 |⑤-⑥-|
43
口口口口 |--①-|
⑥④③⑤ |--②-|
⑧①①⑦ |--③④|
②口口② |⑤⑥⑦⑧|
44
①①①① |①---|
口口口口 |②-③-|
口②③口
②口口③

口口口⑦
口⑥口口
⑦口口⑤ |④-⑤-|
口④口口 |⑥-⑦-|
45
③②①④ |--①-|
口口口口 |--②-|
③口口④ |--③-|
①②口口 |④---|
46
口②⑦口 |①---|
⑥①①⑦ |②-③-|
口①①⑤ |④-⑤-|
④口口③ |⑥-⑦-|
47
口口口口 |--①-|
口①⑤口 |--②-|
②④①口 |--③-|
口②口③ |④-⑤-|
48
①口口① |①---|
口口口③ |②-③-|
②口③口
口②口口

⑦口④口
口⑤口口
口口口⑦ |④-⑤-|
⑥口口口 |⑥-⑦-|
49
口①②口 |--①-|
⑤口口⑥ |--②-|
口口⑥④ |③-④-|
③口②① |⑤-⑥-|
50
⑤口口⑥ |--①-|
口①⑥④ |--②-|
①③口⑥ |③-④-|
口口②口 |⑤-⑥-|
51
口②①口 |--①-|
②①口口 |--②-|
口②①口
口口口口

口口⑨口
口口⑤③
④口口⑦ |③-④⑤|
⑥⑧口③ |⑥⑦⑧⑨|
52
①②口② |①---|
口①口口 |----|
口口口口 |----|
口口口口 |--②-|
53
口口口口 |--①-|
②口①① |--②-|
口②口口
②口口口

口口口口
口③④口
口口③④ |--③-|
口③④口 |--④-|
54
①①口口 |①---|
口口口口 |----|
口口口口 |----|
②口②口 |--②-|
55
口口口② |--①-|
口口②口 |--②-|
①①口②
口口口口

口④③口
④③口口
口④③口 |--③-|
口口口口 |--④-|
56
⑦⑦④口 |①-②-|
口⑤③② |③---|
口口⑥口 |④-⑤-|
口口①① |⑥-⑦-|
57
口口口口 |--①-|
②口①① |--②-|
口②口口
②口口口

口口口口
口③④口
口口③④ |--③-|
口③④口 |--④-|
58
①⑦口⑦ |①-②-|
口⑥口口 |③---|
口②⑤口 |④-⑤-|
④口口③ |⑥-⑦-|
59
口口口口 |--①-|
口口①① |--②-|
②口②口
口口口口

口④口口
口口⑤口
口⑥口口 |--③-|
③③⑦口 |④⑤⑥⑦|
60
①口口口 |①---|
口①口口 |----|
口口②③ |--②-|
口口③② |-③--|
61
口口①口 |①---|
口口口① |----|
③②口口 |--②-|
②③口口 |-③--|
62
口①口口 |①---|
①口口口 |----|
口口②③ |--②-|
口口③② |-③--|
63
口口①口 |①---|
口口口① |----|
③②口口 |--②-|
②③口口 |-③--|
64
口①③② |①---|
①口②③ |----|
口口口口 |--②-|
口口口口 |-③--|
65
②③口口 |①---|
③②口口 |----|
口口口① |--②-|
口口①口 |-③--|
66
口口③② |①---|
口口②③ |----|
①口口口 |--②-|
口①口口 |-③--|
67
②③口口 |①---|
③②口口 |----|
口口口① |--②-|
口口①口 |-③--|
68
口口口口 |①---|
口口口口 |----|
①口口① |----|
口①①口 |----|

不確定度: 0

最終更新:2014年12月12日 01:07