aura
Expander

EXTREME

Level: 9
BPM: 175
Notes: 736

1
口口口口 |----|
口①口口 |----|
口口②口 |--①②|
③③口口 |③---|
2
⑤①⑥① |①---|
口口④口 |②-③-|
口③口口 |④-⑤-|
口口口② |⑥---|
3
口④口④ |①---|
③①口③ |②-③-|
①口③① |----|
②口口口 |④---|
4
口口口口 |①---|
口口口口 |②-③-|
口口口口
②①③①

④口口口
⑥④⑤口
口⑥⑦⑤ |④-⑤-|
口口口⑦ |⑥-⑦-|
5
口口口口 |----|
④口口⑤ |①---|
②④⑤③ |②-③-|
①②③口 |④-⑤-|
6
口①①口 |①---|
口⑤④口 |②-③-|
口口口口 |④---|
③⑤④② |⑤---|
7
③口口③ |①---|
口④④口 |②-③-|
④①①④ |----|
②④④口 |④---|
8
口口口口 |----|
口⑥口口 |①---|
⑤②③口 |②-③-|
④口口① |④-⑤⑥|
9
口口①口 |①---|
③口口口 |②---|
口③口④ |③---|
⑤口口② |④-⑤-|
10
⑤①⑥① |①---|
口口④口 |②-③-|
口③口口 |④-⑤-|
口⑦口② |⑥-⑦-|
11
口④口④ |①---|
③①口③ |②-③-|
①口③① |----|
②口口口 |④---|
12
④口⑦口 |①---|
⑥④⑤⑦ |②-③-|
口⑥口⑤ |④-⑤-|
②①③① |⑥-⑦-|
13
口口口口 |----|
④口口⑤ |①---|
②④⑤③ |②-③-|
①②③口 |④-⑤-|
14
口①①口 |①---|
口口④口 |②-③-|
口口口口 |----|
③⑤口② |④-⑤-|
15
④口口④ |①-②-|
口口口口 |③-④-|
口①①口
③口口②

口口口口
口⑤⑤口
⑤⑥⑥⑤ |----|
口⑤⑤口 |⑤-⑥-|
16
口②口口 |----|
口⑥③口 |①---|
⑤口口口 |②-③-|
④口口① |④-⑤⑥|
17
口口①口 |①---|
③口口口 |②---|
口③口④ |③---|
口口口② |④---|
18
口②口② |①---|
③④⑤口 |----|
口口②口 |②--③|
①①口口 |④⑤--|
19
口口②⑥ |①-②-|
口⑦口⑥ |③-④⑤|
④⑤口⑧ |⑥-⑦-|
③⑨①口 |⑧-⑨-|
20
②口⑦⑤ |①---|
口⑥⑤④ |②-③-|
③口④⑦ |④-⑤-|
口口①① |⑥-⑦-|
21
口⑦口⑦ |--①②|
口口口⑧ |③-④⑤|
⑥⑤④口 |⑥-⑦-|
①②③⑧ |⑧---|
22
②口②口 |①---|
口①①口 |②---|
⑥⑤④③ |③④⑤⑥|
⑩⑨⑧⑦ |⑦⑧⑨⑩|
23
⑤⑤②① |①-②-|
③口①② |③---|
口④④口 |④---|
口口口口 |⑤---|
24
⑦⑦口口 |①---|
②口口② |②---|
口④⑤⑥ |③-④⑤|
①③③① |⑥-⑦-|
25
口口③⑤ |①-②③|
④②①⑥ |④⑤--|
⑨⑦⑥⑧ |⑥-⑦-⑧-|
⑦⑨⑧① |⑨---|
26
口①口口 |①---|
②口①口 |②-③-|
口口口口
口口口③

口口⑤⑨
口口⑧口
口⑦④口 |④-⑤-|
⑥口口口 |⑥⑦⑧⑨|
27
①④口口 |①-②-|
⑤②口口 |③---|
④⑤口口 |④---|
口口口③ |⑤---|
28
⑤⑥口③ |①-②-|
⑧⑤②口 |③-④-|
⑥⑧④口 |⑤-⑥-|
口①口⑦ |⑦-⑧-|
29
口口③⑦ |①-②-|
口④口① |③④⑤⑥|
⑧口⑤口 |⑦-⑧-|
②⑥口⑨ |⑨---|
30
①①口口 |①---|
③口口② |②-③-|
⑦⑥⑤④ |④⑤⑥⑦|
⑪⑩⑨⑧ |⑧⑨⑩⑪|
31
⑤⑤②① |①-②-|
③口①② |③---|
口④④口 |④---|
口口口口 |⑤---|
32
⑦⑦口口 |①---|
②口口② |②---|
口④⑤⑥ |③-④⑤|
①③③① |⑥-⑦-|
33
口口③⑤ |①-②③|
④②①⑥ |④⑤--|
⑨⑦⑥⑧ |⑥-⑦-⑧-|
⑦⑨⑧① |⑨---|
34
③①口② |①---|
口口①口 |----|
口口口口 |②---|
②口口③ |③---|
35
⑥②口⑦ |①-②-|
口⑤⑧③ |③-④-|
①⑥⑦口 |⑤-⑥-|
⑤口④⑧ |⑦-⑧-|
36
口口②口 |①---|
口口口口 |②-③-|
①⑦⑥⑤ |④-⑤⑥|
④口③⑧ |⑦-⑧-|
37
④③②① |①②③④|
⑧⑦⑥⑤ |⑤⑥⑦⑧|
⑫⑪⑩⑨ |⑨⑩⑪⑫|
⑯⑮⑭⑬ |⑬⑭⑮⑯|
38
口②②① |①---|
口②②口 |②---|
口口口口
口口口口

④口口④
口口口口
③口口③ |③---|
口口口口 |--④-|
39
口③口口 |①-②-|
⑤口⑥② |--③-|
口口口口 |④-⑤-|
口①④口 |--⑥-|
40
③④⑤② |①-②-|
⑬⑧⑪⑥ |③④⑤-|
⑨⑫⑦⑩ |⑥⑦⑧⑨|
①口口口 |⑩⑪⑫⑬|
41
⑧⑦⑥⑤ |①②③④|
口⑨口口 |⑤⑥⑦⑧|
口口⑨口 |⑨---|
④③②① |----|
42
口口口⑧ |①---|
⑤④③② |②③④⑤|
口⑨⑦口 |⑥-⑦-|
①口口⑥ |⑧-⑨-|
43
口⑦③口 |①-②-|
⑧④口口 |③-④-|
⑤口口口 |⑤-⑥-|
①⑥②口 |⑦-⑧-|
44
口⑥口③ |①-②-|
口③口口 |③-④-|
⑦口②④ |⑤-⑥-|
⑤口口① |⑦---|
45
口口口口 |①-②-|
⑤口口③ |③-④-|
口②⑥④ |⑤-⑥-|
⑦①口⑥ |--⑦-|
46
口①①③ |①--②|
④②②⑥ |--③④|
口口口⑥ |⑤---|
口⑤⑤⑥ |⑥---|
47
②②⑥口 |①-②-|
口口③⑥ |--③-|
①①口⑤ |④-⑤-|
口④口口 |--⑥-|
48
②⑨口口 |①---|
⑦③口口 |②③④⑤|
⑧口④口 |⑥-⑦-|
①⑥①⑤ |⑧-⑨-|
49
⑧口④口 |①-②-|
口⑥口② |③-④-|
口⑤口① |⑤-⑥-|
⑦口③口 |⑦-⑧-|
50
口口③① |①-②-|
②口口口 |③④-⑤|
口④口口
口⑤口口

口口口口
⑩⑨⑥⑧
⑦口口口 |⑥-⑦-|
口口口口 |⑧⑨-⑩|
51
⑥③②① |①-②-|
口⑦⑧口 |③④⑤-|
口⑨④口 |⑥-⑦-|
口⑤⑩口 |⑧⑨⑩-|
52
口口口② |①-②-|
口口⑥③ |③-④-|
口口⑦④ |⑤-⑥-|
①口口⑤ |⑦---|
53
口口②口 |①---|
口③③② |②---|
①③口③ |③---|
口①③口 |----|
54
⑤①⑥① |①---|
口口④口 |②-③-|
口③口口 |④-⑤-|
口口口② |⑥---|
55
口④口④ |①---|
③①口③ |②-③-|
①⑤③① |----|
②口口口 |④-⑤-|
56
口口口口 |①---|
口口口口 |②-③-|
口口口口
②①③①

④口口口
⑥④⑤口
口⑥⑦⑤ |④-⑤-|
口口口⑦ |⑥-⑦-|
57
口口口口 |----|
④口口⑤ |①---|
②④⑤③ |②-③-|
①②③口 |④-⑤-|
58
口①①口 |①-②-|
口④③口 |③-④-|
⑤口口⑧ |⑤-⑥-|
口⑥⑦② |⑦-⑧-|
59
③口口③ |①---|
口④④口 |②-③-|
④①①④ |----|
②④④口 |④---|
60
②口口口 |----|
③⑦口口 |①-②-|
⑥④⑤口 |③-④-|
口口口① |⑤-⑥⑦|
61
口口①口 |①---|
④口③⑤ |②-③-|
口④口口 |④-⑤-|
⑦口⑥② |⑥-⑦-|
62
⑤①⑥① |①---|
口口④口 |②-③-|
口③口口 |④-⑤-|
口⑦口② |⑥-⑦-|
63
口⑥口口 |①---|
③①⑤③ |②-③-|
①④③① |--④-|
②口口口 |⑤-⑥-|
64
口口口口 |①---|
口口口口 |②-③-|
口口口口
②①③①

④口⑦口
口口⑤⑦
⑦⑥口口 |④-⑤-|
口⑦口口 |⑥-⑦-|
65
④①口③ |----|
①②③⑤ |①---|
④口⑤① |②-③-|
②口①口 |④-⑤-|
66
口⑦①口 |①-②-|
口④⑥口 |③-④-|
⑤①口③ |--⑤-|
口口②口 |⑥-⑦-|
67
④口口④ |①-②-|
口口口口 |③-④-|
口①①口
③口口②

口口口口
口⑤⑤口
⑤⑥⑥⑤ |----|
口⑤⑤口 |⑤-⑥-|
68
②③口口 |----|
口⑦④口 |①-②-|
⑥口口⑤ |③-④-|
口口口① |⑤-⑥⑦|
69
口口①口 |①---|
④口⑤⑥ |②-③-|
口④口口 |④-⑤-|
口口③② |⑥---|
70
口③②① |①-②-|
⑥⑦⑧口 |③④⑤-|
口⑨④口 |⑥-⑦-|
口⑤⑩口 |⑧⑨⑩-|
71
①口⑤② |①---|
⑥⑦⑧⑨ |②-③-|
口口口口 |④-⑤-|
口③口④ |⑥⑦⑧⑨|
72
口②⑤④ |①-②-|
口口口口 |③---|
③口④⑤ |④---|
①③口口 |⑤---|
73
②⑥口④ |①---|
⑥口④口 |②-③-|
口③⑤口 |④-⑤-|
口口①⑤ |--⑥-|
74
口口口⑤ |①-②-|
口⑥口口 |③---|
口④口① |④-⑤-|
③口②口 |⑥---|
75
①口②口 |①---|
口口口⑤ |②-③-|
⑥⑦⑧口 |④-⑤-|
④口③口 |⑥⑦⑧-|
76
①①⑤④ |①-②-|
②②④口 |③---|
口口口⑤ |④---|
口口口③ |⑤---|
77
④⑤口口 |①-②-|
口③口⑥ |③-④-|
口②口⑦ |⑤-⑥-|
①口口⑧ |⑦-⑧-|
78
口口③⑤ |①-②③|
④②①口 |④⑤--|
口口口口
口口口口

⑪⑪口口
口口⑩⑥
⑨⑦⑥⑧ |⑥-⑦-⑧-|
⑦⑨⑧⑩ |⑨-⑩-⑪-|
79
口口①口 |①---|
口①口口 |----|
口②口② |②---|
②口②口 |----|

不確定度: 0

最終更新:2014年12月11日 22:54