Metric
Hommarju

EXTREME

Level: 9
BPM: 123
Notes: 861

1
口口口口 |----|
口口口口 |----|
口口口口 |----|
口口口口 |----|
2
⑦③口口 |①-②-|
①⑤①① |③-④-|
⑥②口口 |⑤-⑥-|
④⑧口口 |⑦-⑧-|
3
⑦③口口 |①-②-|
①⑤口口 |③-④-|
⑥②①① |⑤-⑥-|
④⑧口口 |⑦-⑧-|
4
⑦③口口 |①-②-|
①⑤口口 |③-④-|
⑥②口口 |⑤-⑥-|
④⑧①① |⑦-⑧-|
5
⑦⑤口口 |①-②-|
①③⑤⑤ |③-④-|
④②①① |⑤-⑥-|
⑥⑧口口 |⑦-⑧-|
6
口口口口 |①---|
①①②口 |--②-|
口①①口
口口①①

口口③③
口口口③
③④口口 |③---|
③③口口 |--④-|
7
①①口口 |①---|
②①口③ |---②③④|
④口①口
口口①①

口⑦⑦口
口口口口
口口口⑤ |⑤-⑥-|
⑧⑥⑥⑧ |⑦-⑧-|
8
①口口① |①---|
口①①② |---②③④|
口①①③
口口口④

口⑤口口
口口口口
⑤⑥口口 |⑤---|
口口⑤口 |--⑥-|
9
口口口口 |①---|
②口①③ |---②③④|
④口①口
①①口口

口⑦⑦口
口口口口
口口口⑤ |⑤-⑥-|
⑧⑥⑥⑧ |⑦-⑧-|
10
口口口① |①---|
①②①① |②-③-|
①①③口
口口口口

④④④口
口口⑤口
口⑥口口 |④---|
口④④④ |⑤-⑥-|
11
口③④① |①---|
①②口① |②--③④⑤|
①口口①
①⑤口口

口口口⑧
口口口口
口口口口 |⑥-⑦-|
⑦口⑥⑨ |⑧-⑨-|
12
口①口口 |①-②-|
③①②① |---③④⑤|
④①口①
⑤口口口

⑦口⑥口
口口口⑧
口口⑥⑨ |⑥-⑦-|
口⑥口⑩ |---⑧⑨⑩|
13
②口口③ |①---|
④①口口 |---②③④|
①口口口
口口①口

口口口口
口⑦口⑤
口口口口 |⑤-⑥-|
⑥口口⑧ |⑦-⑧-|
14
①①口② |①---|
口③④② |②---|
④②①口 |③---|
④口③③ |④---|
15
①①口② |①---|
口③④② |②---|
④②①口 |③---|
④口③③ |④---|
16
①②③④ |①-②-|
⑫⑤⑨⑤ |③-④-|
⑪③①⑥ |⑤⑥⑦⑧|
⑩⑨⑧⑦ |⑨⑩⑪⑫|
17
口②口口 |①②-③|
口③口口 |④-⑤⑥|
口口①口
⑥口⑤④

⑨口口⑨
口⑨⑨口
⑨⑦⑧⑨ |-⑦⑧-|
口口口口 |⑨---|
18
④①①④ |①-②-|
口④⑤② |③---|
口⑥③口 |④---|
③⑤⑤③ |⑤-⑥-|
19
⑤①①⑤ |①-②-|
③⑤⑤② |③-④-|
⑥口④⑥ |⑤---|
③⑥⑥③ |⑥---|
20
口①①口 |①---|
①口②① |②-③-|
口③口口
②口口②

④口口④
⑤⑥⑦⑧
口口④口 |④---|
口⑤⑤口 |⑤⑥⑦⑧|
21
④①①④ |①-②-|
口⑤⑤口 |③---|
④口②④ |④---|
③⑤⑤③ |⑤---|
22
口①①口 |①---|
①③口① |②-③-|
②①①口
②口口②

④口口④
⑤口④⑧
⑨口⑥口 |④-⑤⑥|
口⑦⑦口 |⑦⑧⑨-|
23
④①①④ |①---|
②⑤⑤③ |②-③-|
④①④① |④---|
②⑤⑤② |⑤---|
24
⑤①①⑤ |①-②-|
①⑥⑥⑤ |③-④-|
口②③④ |⑤---|
③⑥⑥③ |⑥---|
25
⑤①①⑤ |①-②-|
①⑥⑥⑤ |③-④-|
口②③④ |⑤---|
③⑥⑥③ |⑥---|
26
③①①④ |①---|
②④③② |----|
①③④① |②---|
④②②③ |-③-④|
27
⑤②③⑤ |----|
口④⑤口 |-①②③|
①⑤④口 |④---|
④口口④ |⑤---|
28
②口①口 |①---|
①②口口 |---②|
口口②①
口①口②

口④口③
④口③④
⑤③口⑤ |--③-|
③口⑤口 |-④-⑤|
29
①口口⑤ |---①|
口⑤②⑤ |-②③④|
⑥③⑥口 |⑤---|
④口⑥口 |⑥---|
30
①①④口 |①-②-|
③口口口 |-③-④|
口①口①
口②口口

⑧口口⑨
口⑩口口
⑩⑦⑥⑩ |-⑤⑥⑦|
口口口⑤ |⑧⑨-⑩|
31
口口口口 |--①-|
口口口④ |②③④-|
口口③口
②②①口

口口口⑩
⑧⑧⑥口
⑤⑤口⑦ |⑤⑥⑦-|
口口⑨口 |⑧⑨⑩-|
32
①①⑤口 |①-②③|
口口口② |-④-⑤|
口口④口
口口口③

⑩口口⑨
口口⑧⑪
口⑦口⑪ |-⑥⑦⑧|
⑥口口口 |⑨⑩-⑪|
33
⑨⑩⑩⑨ |①②③④|
⑩①⑧⑩ |⑤⑥⑦⑧|
⑨⑤②⑨ |⑨---|
⑦③④⑥ |⑩---|
34
③口口口 |①-②-|
口①①④ |③-④-|
②①①口
①④口①

口⑦口口
⑤口口口
口⑥口口 |⑤-⑥-|
⑧口⑦口 |⑦-⑧-|
35
④⑧口口 |①-②-|
⑦③①口 |③-④-|
②⑥⑧口 |⑤-⑥-|
⑤①口口 |⑦-⑧-|
36
①⑤口口 |①-②-|
⑥②口① |③-④-|
③⑦口⑧ |⑤-⑥-|
⑧④口③ |⑦-⑧-|
37
④⑤①口 |①-②-|
⑥③口口 |③-④-|
②⑦口口 |⑤-⑥-|
⑧①③口 |⑦-⑧-|
38
③⑦⑦④ |①-②-|
⑤①①① |③-④-|
②⑥①① |⑤-⑥-|
⑧④口口 |⑦-⑧-|
39
④⑧口口 |①-②-|
⑦③①口 |③-④-|
②⑥③口 |⑤-⑥-|
⑤①口④ |⑦-⑧-|
40
①⑤口① |①-②-|
⑥②③口 |③-④-|
③⑦口④ |⑤-⑥-|
⑧④口⑧ |⑦-⑧-|
41
④⑤口③ |①-②-|
⑥③口口 |③-④-|
②⑦①口 |⑤-⑥-|
⑧①口口 |⑦-⑧-|
42
⑤③②⑤ |①-②③|
口①口口 |-④-⑤|
①口④①
口口①口

口⑧口口
⑧⑦⑦⑧
口口口口 |--⑥-|
⑥口⑧⑥ |-⑦-⑧|
43
①⑥口③ |----|
口⑤⑤⑥ |①②③④|
②⑥⑥④ |⑤---|
口⑤口⑤ |⑥---|
44
②口口③ |①-②③|
①口口口 |-④-⑤|
①④口①
⑤口①⑤

⑧⑥⑥口
口⑧口口
⑦口⑧⑦ |--⑥-|
口口⑧口 |-⑦-⑧|
45
口口口① |--①②|
④口口③ |③④⑤⑥|
口口口口
②⑤口⑥

⑦口⑧口
口口⑦口
⑦⑧⑧⑦ |⑦---|
⑧口口口 |⑧---|
46
口①口① |①-②③|
①口④① |-④-⑤|
⑤口口⑤
口③②口

⑥口⑧⑥
口⑧口⑧
口口口口 |--⑥-|
⑧⑦⑦口 |-⑦-⑧|
47
③口⑥① |----|
口⑤口⑤ |①②③④|
④⑤⑥② |⑤---|
⑥⑥⑤口 |⑥---|
48
⑤口口⑤ |①-②③|
①②①③ |-④-⑤|
①口口口
口④口①

口⑧口口
⑧⑦⑦⑧
口口口口 |--⑥-|
⑥口⑧⑥ |-⑦-⑧|
49
③口口④ |--①②|
⑧⑦⑧⑦ |③④⑤⑥|
⑤①②⑥ |⑦---|
⑦⑧⑧⑦ |⑧---|
50
①①②③ |①-②-|
⑧⑤⑦③ |③-④-|
⑦③①④ |⑤-⑥-|
⑦⑥⑤⑤ |⑦-⑧-|
51
①①②③ |①-②-|
⑧⑤⑦③ |③-④-|
⑦③①④ |⑤-⑥-|
⑦⑥⑤⑤ |⑦-⑧-|
52
①②③④ |①-②-|
⑫⑤⑨⑤ |③-④-|
⑪③①⑥ |⑤⑥⑦⑧|
⑩⑨⑧⑦ |⑨⑩⑪⑫|
53
口②口口 |①②-③|
口③口口 |④-⑤⑥|
口口①口
⑥口⑤④

⑨口口⑨
口⑨⑨口
⑨⑦⑧⑨ |-⑦⑧-|
口口口口 |⑨---|
54
口①③口 |①-②-|
口口口② |③-④-|
④口③口
口③①口

⑤口口⑦
口⑤⑦口
口⑧口⑥ |⑤-⑥-|
⑦口⑧⑤ |⑦-⑧-|
55
③②①口 |①-②-|
③②口④ |③-④-|
口口口口
口①口③

口⑦口⑤
口⑧⑤口
⑤⑦⑥⑦ |⑤-⑥-|
⑤口⑦口 |⑦-⑧-|
56
③口①口 |①-②-|
①口③① |③-④-|
②④口口
口①口③

口⑦口⑤
⑦⑧⑨⑩
口口⑤⑥ |⑤-⑥-|
⑤口⑦口 |⑦⑧⑨⑩|
57
③口①口 |①-②-|
口口口口 |③-④-|
口④②口
口①口③

口⑦口⑤
⑥⑦⑦口
⑤口⑧⑤ |⑤-⑥-|
⑤口⑦口 |⑦-⑧-|
58
③⑦①⑤ |①-②-|
⑥④⑤① |③-④-|
⑦②⑧③ |⑤-⑥-|
⑤①⑦③ |⑦-⑧-|
59
③口①口 |①-②-|
③②口④ |③-④-|
口①口①
口①口③

口⑦口⑤
口⑦⑦口
⑤⑧⑤⑥ |⑤-⑥-|
⑤口⑦口 |⑦-⑧-|
60
③口①口 |①-②-|
①口口口 |③-④-|
②口③④
口①口③

⑧⑦⑨⑤
⑥⑦⑦⑤
口口口口 |⑤-⑥-|
⑤口⑦口 |⑦-⑧⑨|
61
⑧⑧口口 |①②-③|
⑧口口③ |④-⑤⑥|
④①②⑦ |⑦---|
⑤⑥⑦⑦ |⑧---|
62
口口①口 |①---|
口①①① |----|
①①①口 |----|
口①口口 |----|

不確定度: 0

最終更新:2014年12月11日 23:27