量子の海のリントヴルム
黒猫ダンジョン

ADVANCED

Level: 7
BPM: 280
Notes: 536

實際BPM: 140
1
口口口口 |----|
口口口口 |----|
口口口口 |----|
口口口口 |----|
2
口口③④ |---①|
①②口口 |--②-|
口口口口 |--③-|
口口口口 |-④|
3
口口口口 |---①|
口口口口 |--②-|
口口②① |--③-|
④③口口 |-④|
4
口④⑧口 |①-②-|
口⑦③口 |③-④⑤|
口②⑥口 |-⑥-⑦|
口⑤①口 |-⑧|
5
口③⑦口 |①--②|
口⑤④口 |-③-④|
①②口① |⑤-⑥-|
口口⑥口 |⑦-|
6
⑤④口⑥ |①②-③|
⑦口口⑧ |-④-⑤|
⑨②①⑩ |⑥⑦⑧⑨|
口③口口 |⑩-|
7
口口口口 |①---|
口口口口 |----|
口口口口 |----|
口①①口 |--|
8
口③⑦口 |①--②|
口⑤④口 |-③-④|
①②口① |⑤-⑥-|
口口⑥口 |⑦-|
9
⑤④口⑥ |①②-③|
⑦口口⑧ |-④-⑤|
⑨②①⑩ |⑥⑦⑧⑨|
口③口口 |⑩-|
10
口口口口 |①---|
口口口口 |----|
口口口口 |----|
口①①口 |--|
11
⑥口口⑥ |①--②|
①口口① |-③-④|
⑤②③⑤ |⑤-⑥-|
④口口④ |--|
12
⑥口口⑥ |①--②|
①口口① |-③-④|
⑤②③⑤ |⑤-⑥-|
④口口④ |--|
13
口④②口 |①---|
③①③① |②---|
④②④② |③---|
口③①口 |④---|
14
口④②口 |①---|
③①③① |②---|
④②④② |③---|
口③①口 |④---|
15
②④②④ |①---|
口①③口 |②---|
口②④口 |③---|
①③①③ |④---|
16
②④②④ |①---|
口①③口 |②---|
口②④口 |③---|
①③①③ |④---|
17
口口③口 |①--②|
口④②③ |--③-|
口口口口 |-④--|
①口①口
18
口①口口 |①--②|
①口口口 |--③-|
③②④口 |-④--|
口③口口
19
口口③口 |①--②|
口④②③ |--③-|
口口口① |-④--|
口口①口
20
口①口口 |①--②|
①口口口 |--③-|
③②④口 |-④--|
口③口口
21
⑩口口③ |①②-③|
④⑥⑦③ |-④--|
④⑧⑨① |⑤⑥⑦⑧|
②口①⑤ |⑨⑩--|
22
⑩口口③ |①②-③|
④⑥⑦③ |-④--|
④⑧⑨① |⑤⑥⑦⑧|
②口①⑤ |⑨⑩--|
23
口口口口 |①--②|
③口口口 |--③-|
①口口②
口口口口

口口④口
口口⑤口
口⑥口⑦ |-④⑤-|
口口口口 |⑥--⑦|
24
口口口② |--①-|
①口⑤口 |-②--|
口③口口 |③--④|
口口④口 |--⑤-|
25
口口口口 |①--②|
③口口口 |--③-|
①口口②
口口口口

口口④口
口口⑤口
口⑥口⑦ |-④⑤-|
口口口口 |⑥--⑦|
26
口口⑥② |--①-|
①口⑤口 |-②--|
口③④口 |③-④-|
口口口口 |⑤-⑥-|
27
①⑧口口 |①-②-|
②⑦口口 |③-④-|
③⑥口口 |⑤-⑥-|
④⑤口口 |⑦-⑧-|
28
口口①⑥ |①-②-|
口口②⑥ |③-④-|
口口③口 |⑤--⑥|
口口④⑤ |----|
29
①⑧口口 |①-②-|
②⑦口口 |③-④-|
③⑥口口 |⑤-⑥-|
④⑤口口 |⑦-⑧-|
30
口口①⑥ |①-②-|
口口②⑥ |③-④-|
口口③口 |⑤--⑥|
口口④⑤ |----|
31
②②口④ |①-②-|
口⑥⑦④ |③-④-|
①口口⑤ |⑤-⑥⑦|
①口③③ |----|
32
②②口④ |①-②-|
口口口④ |③-④-|
①口口口
①口③③

口口口口
⑤⑥⑦口
⑫⑩⑨⑧ |⑤⑥⑦⑧|
⑪口口口 |⑨⑩⑪⑫|
33
③④口口 |-①②-|
⑦⑧⑩口 |③④-⑤|
口⑨⑥⑤ |⑥-⑦⑧|
口口②① |-⑨-⑩|
34
口口口口 |--①-|
③口口③ |②-③-|
②口口②
口①①口
35
口①②口 |①-②-|
口③④口 |③-④-|
⑥口口⑧ |⑤⑥⑦⑧|
⑤口口⑦ |----|
36
口①②口 |①-②-|
口③④口 |③-④-|
⑥口口⑧ |⑤⑥⑦⑧|
⑤口口⑦ |----|
37
①②④③ |-①②-|
⑤⑥⑧⑦ |③④-⑤|
口⑩⑩口 |⑥-⑦⑧|
口⑨⑨口 |-⑨-⑩|
38
③④口③ |--①-|
②口⑤② |②-③-|
①⑥口① |④-⑤-|
口口口口 |⑥-|
39
口口④④ |①--②|
③③口口 |--③-|
口口②② |-④--|
①①口口
40
①①口口 |①--②|
口口②② |--③-|
③③口口 |-④--|
口口④④
41
口①①口 |①---|
口口口口 |----|
口口口口 |----|
口口口口 |----|
42
③口口③ |①---|
口①①口 |②---|
口②②口 |③---|
④口口④ |④-|
43
口口⑤口 |-①-②|
③①②口 |--③-|
③口口口 |--④-|
口口④口 |-⑤|
44
口③口口 |--①-|
口口口① |--②-|
口口口① |-③--|
口②口口
45
口口口口 |①---|
口②②口 |②---|
③①①④ |③---|
口口口口 |④-|
46
④口口⑤ |-①-②|
口①②口 |--③-|
口口口口 |--④-|
口③③口 |-⑤|
47
口口口口 |--①-|
口①①口 |--②-|
口口口口 |-③--|
②口口③
48
⑤口④⑥ |①-②-|
⑦②③⑧ |③-④-|
口①①口 |⑤-⑥-|
口口口口 |⑦-⑧-|
49
口④④口 |①-②-|
⑤③③⑥ |③-④-|
⑦②②⑧ |⑤-⑥-|
口①①口 |⑦-⑧-|
50
口④②口 |①--②|
口③①口 |----|
口④②口 |③--④|
口口口口 |----|
51
①口口④ |①-②-|
⑤②③⑧ |③-④-|
①口口④ |⑤-⑥-|
口⑥⑦口 |⑦-⑧-|
52
⑤口④⑥ |①-②-|
⑦②③⑧ |③-④-|
口①①口 |⑤-⑥-|
口口口口 |⑦-⑧-|
53
口④④口 |①-②-|
⑤③③⑥ |③-④-|
⑦②②⑧ |⑤-⑥-|
口①①口 |⑦-⑧-|
54
口④②口 |①--②|
口③①口 |----|
口④②口 |③--④|
口口口口 |----|
55
①口口④ |①-②-|
⑤②③⑧ |③-④-|
①口口④ |⑤-⑥-|
口⑥⑦口 |⑦-⑧-|
56
②①②口 |①--②|
口③口口 |--③-|
①②①口 |----|
口口口口 |----|
57
④口④口 |①--②|
口③口口 |--③-|
口②口口 |-④--|
口①口口 |----|
58
口口口口 |①--②|
口①②① |--③-|
口口③口 |----|
口②①② |----|
59
口口①口 |①--②|
口口②口 |--③-|
口口③口 |-④--|
口口④口 |----|
60
②口①口 |①--②|
口口口口 |--|
口②口①
口口口口
61
口口口口 |①--②|
②②④④ |--③-|
口口口口 |-④--|
①①③③
62
④①③② |①--②|
口口口口 |--③-|
①④②③ |-④--|
口口口口
63
口口口口 |①--②|
②②④④ |--③-|
口口口口 |-④--|
①①③③
64
④①③② |①--②|
口口口口 |--③-|
①④②③ |-④--|
口口口口
65
口口口口 |①--②|
②②④④ |--③-|
口口口口 |-④--|
①①③③
66
④①③② |①--②|
口口口口 |--③-|
①④②③ |-④--|
口口口口
67
口口口口 |①--②|
②②④④ |--③-|
口口口口 |-④--|
①①③③
68
口①口② |①--②|
口③口④ |--③-|
①口②口 |-④--|
③口④口
69
②口口② |①---|
④④④④ |-②--|
①口口① |--③-|
③口口③ |---④|


不確定度: 0

タグ:

+ タグ編集
  • タグ:

このサイトはreCAPTCHAによって保護されており、Googleの プライバシーポリシー利用規約 が適用されます。

最終更新:2013年03月29日 19:54