DANCE ALL NIGHT
Sota Fujimori

ADVANCED

Level: 6
BPM: 135
Notes: 413

1
口口口口 |----|
口口口口 |----|
口口口口 |----|
口口口口 |----|
2
③口口③ |①---|
口口①口 |----|
口②口口 |②---|
口口口口 |③---|
3
⑤⑥④口 |①-②-|
口③口⑦ |③-④-|
口口②口 |⑤--⑥|
①口口① |--⑦-|
4
口口口口 |①-②-|
口④①口 |③-④-|
口口口口 |----|
口③②口 |----|
5
④②口口 |①---|
⑤口③口 |②-③-|
⑥①①口 |④--⑤|
口口口口 |--⑥-|
6
口口口口 |①-②-|
口②③口 |③-④-|
口口口口 |----|
口①④口 |----|
7
口④⑥⑤ |①-②-|
⑦口③口 |③-④-|
口②口口 |⑤--⑥|
①口口① |--⑦-|
8
口口口口 |①-②-|
口①④口 |③-④-|
口口口口 |----|
口②③口 |----|
9
口口②④ |①---|
口③口⑤ |②-③-|
口①①⑥ |④--⑤|
口口口口 |--⑥-|
10
口口口口 |①-②-|
口③②口 |③-④-|
口口口口 |----|
口④①口 |----|
11
⑤口口口 |①---|
⑤③④口 |②---|
口口②口 |③-④-|
口①口口 |⑤---|
12
口口①口 |①---|
口②口口 |②---|
口④③⑤ |③-④-|
口口口⑤ |⑤---|
13
口口④口 |①---|
口口③口 |②---|
口口②口 |③---|
口口①口 |④---|
14
口①口口 |①---|
口②口口 |②---|
⑤③口④ |③-④-|
⑤口口④ |--⑤-|
15
口口口⑤ |①---|
口④③⑤ |②---|
口②口口 |③-④-|
口口①口 |⑤---|
16
口①口口 |①---|
口口②口 |②---|
⑤③④口 |③-④-|
⑤口口口 |⑤---|
17
口④口口 |①---|
口③口口 |②---|
口②口口 |③---|
口①口口 |④---|
18
口口①口 |①---|
口口②口 |②---|
④口③⑤ |③-④-|
④口口⑤ |--⑤-|
19
口口口③ |①---|
口②口口 |②---|
口口口④ |③---|
口①口口 |④---|
20
③口口④ |--①-|
口①②口 |--②-|
口②①口 |--③-|
④口口③ |--④-|
21
口④口口 |①---|
口口③口 |②---|
口②口口 |③---|
口口①口 |④---|
22
口口口① |①---|
口③口口 |②---|
口口②口 |③---|
④口口口 |④---|
23
③口口口 |①---|
口口②口 |②---|
④口口口 |③---|
口口①口 |④---|
24
④口口③ |--①-|
口②①口 |--②-|
口①②口 |--③-|
③口口④ |--④-|
25
口口④口 |①---|
口③口口 |②---|
口口②口 |③---|
口①口口 |④---|
26
口②②口 |①---|
①口口① |----|
口口口口 |----|
口口口口 |②---|
27
口口口① |--①-|
口③②① |--②-|
④③②口 |--③-|
④口口口 |--④-|
28
①口①口 |--①-|
②口②口 |--②-|
口③口③ |--③-|
口④口④ |--④-|
29
①①口口 |--①-|
口②②口 |--②-|
口③③口 |--③-|
口口④④ |--④-|
30
口①口① |--①-|
口②口② |--②-|
③口③口 |--③-|
④口④口 |--④-|
31
口口口口 |①-②-|
①②口④ |③-④-|
口口③口
口口口口

口⑦⑥口
⑧口口口
口⑤口口 |⑤-⑥-|
口口口口 |⑦-⑧-|
32
口⑧⑦口 |①-②-|
口口④⑤ |③-④-|
①③口⑥ |⑤-⑥-|
口口②口 |⑦-⑧-|
33
⑤⑥口口 |①-②-|
①②⑧⑦ |③-④-|
口口④③ |⑤-⑥-|
口口口口 |⑦-⑧-|
34
⑥口口⑥ |①-②-|
口⑤⑤口 |③-④-|
口②④口 |⑤--⑥|
口①③口 |----|
35
口②②口 |①---|
口④口① |②---|
③口口① |--③-|
口口口口 |④---|
36
口口口口 |①---|
口口口② |②---|
口口口①
口口口口

口口口口
口口口口
⑤口口⑥ |③-④-|
③口口④ |⑤-⑥-|
37
口口④口 |①---|
口口③口 |②---|
口②口口 |③---|
口①口口 |④---|
38
①口口① |①---|
②④③② |②---|
口⑥⑤口 |③-④-|
口口口口 |⑤-⑥-|
39
口②②口 |①---|
口口④口 |②---|
口口口③ |--③-|
①口口① |④---|
40
口口口口 |①---|
②口口口 |②---|
①口口口
口口口口

口口口口
口口口口
⑥口口⑤ |③-④-|
④口口③ |⑤-⑥-|
41
口④口口 |①---|
口③口口 |②---|
口口②口 |③---|
口口①口 |④---|
42
①口口① |①---|
②④口② |②---|
口口③口 |--③-|
口口口口 |④---|
43
口口口口 |①---|
①口口① |----|
①口口① |----|
口口口口 |----|
44
②口口② |----|
口口口口 |----|
口①①口 |--①-|
口口口口 |②---|
45
⑥口口⑥ |①-②-|
②④⑤③ |③---|
口⑤④口 |④-⑤-|
口①①口 |⑥---|
46
⑦口口⑦ |①-②-|
口口口口 |③-④-|
口⑤⑥口 |⑤-⑥-|
①③②④ |⑦---|
47
口口口口 |①-②-|
①②③④ |③-④-|
⑤⑥⑦⑧ |⑤-⑥-|
口口口口 |⑦-⑧-|
48
⑤口口① |①-②-|
口⑥②口 |③-④-|
口③⑦口 |⑤-⑥-|
④口口⑧ |⑦-⑧-|
49
⑥口口⑥ |①-②-|
③⑤④② |③---|
口④⑤口 |④-⑤-|
口①①口 |⑥---|
50
⑦口口⑦ |①-②-|
口口口口 |③-④-|
口⑥⑤口 |⑤-⑥-|
④②③① |⑦---|
51
④④口口 |①---|
口口①① |②---|
口口②② |③---|
③③口口 |④---|
52
③口口④ |①---|
①口口② |②---|
①④③② |③---|
口口口口 |④---|
53
⑥口口⑥ |①-②-|
②④⑤③ |③---|
口⑤④口 |④-⑤-|
口①①口 |⑥---|
54
⑦口口⑦ |①-②-|
口口口口 |③-④-|
口⑤⑥口 |⑤-⑥-|
①③②④ |⑦---|
55
口口口口 |①-②-|
①②③④ |③-④-|
⑤⑥⑦⑧ |⑤-⑥-|
口口口口 |⑦-⑧-|
56
⑤口口① |①-②-|
口⑥②口 |③-④-|
口③⑦口 |⑤-⑥-|
④口口⑧ |⑦-⑧-|
57
⑥口口⑥ |①-②-|
③⑤④② |③---|
口④⑤口 |④-⑤-|
口①①口 |⑥---|
58
⑦口口⑦ |①-②-|
口口口口 |③-④-|
口⑥⑤口 |⑤-⑥-|
④②③① |⑦---|
59
④④口口 |①---|
口口①① |②---|
口口②② |③---|
③③口口 |④---|
60
④口口④ |①---|
①口口② |②---|
①③③② |③---|
口口口口 |④---|
61
⑤口口口 |①---|
⑤③④口 |②---|
口口②口 |③-④-|
口①口口 |⑤---|
62
口口①口 |①---|
口②口口 |②---|
口④③⑤ |③-④-|
口口口⑤ |⑤---|
63
口口④口 |①---|
口口③口 |②---|
口口②口 |③---|
口口①口 |④---|
64
口①口口 |①---|
⑤②口④ |②---|
⑤③口④ |③-④-|
口口口口 |⑤---|

不確定度: 0

最終更新:2014年08月02日 02:44