smooooch・∀・
kors k

BASIC

Level: 3
BPM: 177
Notes: 255

1
口口口口 |----|
口口口口 |----|
口口口口 |----|
口口口口 |----|
2
口口口口 |①---|
口①①口 |----|
口①①口 |----|
口口口口 |----|
3
口口口口 |①---|
口①口口 |----|
口口口口 |----|
口口口口 |----|
4
口口口口 |①---|
口口①口 |----|
口口口口 |----|
口口口口 |----|
5
口口口口 |①---|
口口口① |----|
口口口口 |----|
口口口口 |----|
6
口口口口 |①---|
口口口口 |----|
①口口口 |----|
口口口口 |----|
7
口口口口 |①---|
口口口口 |----|
口①口口 |----|
口口口口 |----|
8
口口口口 |①---|
口口口口 |----|
口口①口 |----|
口口口口 |----|
9
口口口口 |①---|
口口口口 |----|
口口口① |----|
口口口口 |----|
10
口口口口 |①---|
口②②口 |②---|
口①①口 |----|
口口口口 |----|
11
口口口口 |----|
口口口口 |----|
口口口口 |----|
口口口口 |----|
12
口口③口 |①-②-|
口②口口 |③---|
口口①口 |----|
口口口口 |----|
13
口口口口 |----|
口口口口 |----|
口口口口 |----|
口口口口 |----|
14
口口口口 |①---|
口①①口 |----|
口①①口 |----|
口口口口 |----|
15
口口口口 |----|
口口口口 |----|
口口口口 |----|
口口口口 |----|
16
①口口① |①---|
口口口口 |----|
口口口口 |----|
口口口口 |----|
17
口口口口 |①---|
口②②口 |----|
口①①口 |②---|
口口口口 |----|
18
①②③口 |①---|
口口口口 |②---|
口口口口 |③---|
口口口口 |----|
19
口口口口 |①---|
口③②① |②---|
口口口口 |③---|
口口口口 |----|
20
口口口口 |①---|
口口口口 |----|
①口口② |②---|
口口口口 |----|
21
口口口口 |①---|
口口口口 |----|
口口口口 |②---|
①口口② |----|
22
口口口口 |①---|
①②③口 |②---|
口口口口 |③---|
口口口口 |----|
23
口口口口 |①---|
口口口口 |②---|
口③②① |③---|
口口口口 |----|
24
口口口口 |①---|
口口口口 |----|
口②②口 |②---|
口①①口 |----|
25
①口口① |①---|
②口口② |②---|
③口口③ |③---|
口口口口 |----|
26
①②③④ |①---|
口口口口 |②---|
口口口口 |③---|
口口口口 |④---|
27
口口口口 |①---|
口①①口 |----|
口口口口 |----|
口口口口 |----|
28
口口口口 |①---|
口口口口 |----|
口口口口 |----|
口①①口 |----|
29
口口口口 |①---|
口口口口 |----|
口①①口 |----|
口口口口 |----|
30
口口口口 |①---|
①②③④ |②---|
口口口口 |③---|
口口口口 |④---|
31
口口口口 |①---|
口口口口 |----|
口①①口 |----|
口口口口 |----|
32
口口口口 |①---|
口口口口 |----|
口口口口 |----|
口①①口 |----|
33
口口口口 |①---|
口口口口 |----|
口①①口 |----|
口口口口 |----|
34
②④口口 |①---|
①③口口 |②---|
口口口口 |③---|
口口口口 |④---|
35
口口①③ |①---|
口口②④ |②---|
口口口口 |③---|
口口口口 |④---|
36
口口口口 |①---|
口口口口 |②---|
①②③④ |③---|
口口口口 |④---|
37
口口口口 |①---|
口口口口 |②---|
④口口口 |③---|
④③②① |④---|
38
①口口② |①---|
③口口④ |②---|
口口口口 |③---|
口口口口 |④---|
39
口①①口 |①---|
口②②口 |②---|
口③③口 |③---|
口④④口 |④---|
40
口口口口 |①---|
②口口② |----|
口口口口 |②---|
①口口① |----|
41
口①①口 |①---|
口②②口 |②---|
口③③口 |③---|
口④④口 |④---|
42
口口口口 |①---|
①口口① |----|
①口口① |----|
口口口口 |----|
43
口口口口 |①---|
口①①口 |----|
口②②口 |②---|
口口口口 |----|
44
口口口口 |①---|
①口口① |----|
①口口① |----|
口口口口 |----|
45
口①①口 |①---|
②口口③ |----|
口口口口 |②---|
口口口口 |③---|
46
口口口口 |①---|
口口口口 |----|
口①①口 |----|
口口口口 |----|
47
口口口口 |①---|
口①①口 |----|
②口口③ |②---|
口口口口 |③---|
48
口口口口 |①---|
口口口口 |----|
口口口口 |----|
口①①口 |----|
49
①口口① |①---|
②口口② |②---|
③口口③ |③---|
④口口④ |④---|
50
口口口口 |①---|
口①①口 |----|
口①①口 |----|
口口口口 |----|
51
①口口口 |①---|
口口口口 |----|
口口口口 |----|
口口口口 |----|
52
口口口① |①---|
口口口口 |----|
口口口口 |----|
口口口口 |----|
53
口口口口 |①---|
①口口口 |----|
口口口口 |----|
口口口口 |----|
54
口口口口 |①---|
口口口① |----|
口口口口 |----|
口口口口 |----|
55
口口口口 |①---|
口口口口 |----|
①口口口 |----|
口口口口 |----|
56
口口口口 |①---|
口口口口 |----|
口口口① |----|
口口口口 |----|
57
口②②口 |①---|
口口口口 |----|
口口口口 |②---|
口①①口 |----|
58
口口口口 |①---|
①②③口 |②---|
口口口口 |③---|
口口口口 |----|
59
口口口口 |①---|
口口口口 |②---|
口③②① |③---|
口口口口 |----|
60
口②②口 |①---|
口口口口 |----|
口口口口 |②---|
口①①口 |----|
61
口口口口 |①---|
①口口① |----|
②口口② |②---|
口口口口 |----|
62
①②③口 |①---|
口口口口 |②---|
口口口口 |③---|
口口口口 |----|
63
口口口口 |①---|
口口口口 |②---|
口口口口 |③---|
口③②① |----|
64
口口口口 |①---|
口①①口 |----|
口②②口 |②---|
口口口口 |----|
65
口①①口 |①---|
口②②口 |②---|
口③③口 |③---|
口④④口 |④---|
66
口口口口 |①---|
①②③口 |②---|
口口口口 |③---|
口口口口 |----|
67
口口口口 |①---|
口口口口 |②---|
口③②① |③---|
口口口口 |----|
68
口②②口 |①---|
口口口口 |----|
口口口口 |②---|
口①①口 |----|
69
口口口口 |①---|
①口口① |----|
②口口② |②---|
口口口口 |----|
70
①②③口 |①---|
口口口口 |②---|
口口口口 |③---|
口口口口 |----|
71
口口口口 |①---|
口口口口 |②---|
口口口口 |③---|
口③②① |----|
72
口口口口 |①---|
口①①口 |----|
口②②口 |②---|
口口口口 |----|
73
口①①口 |①---|
口②②口 |②---|
口③③口 |③---|
口④④口 |④---|
74
口口口口 |①---|
①②③口 |②---|
口口口口 |③---|
口口口口 |----|
75
口口口口 |①---|
口口口口 |②---|
口③②① |③---|
口口口口 |----|
76
口②②口 |①---|
口口口口 |----|
口口口口 |②---|
口①①口 |----|
77
口口口口 |①---|
①口口① |----|
②口口② |②---|
口口口口 |----|
78
①②③口 |①---|
口口口口 |②---|
口口口口 |③---|
口口口口 |----|
79
口口口口 |①---|
口口口口 |②---|
口口口口 |③---|
口③②① |----|
80
口口口口 |①---|
口①①口 |----|
口②②口 |②---|
口口口口 |----|
81
①口口① |①---|
口口口口 |----|
口口口口 |----|
口口口口 |----|
82
口口口口 |①---|
口①①口 |----|
口①①口 |----|
口口口口 |----|

不確定度: 0

最終更新:2014年08月02日 00:37