Second Heaven
Ryu☆

BASIC

Level: 4
BPM: 149
Notes: 268

1
口口口口 |----|
口口口口 |----|
口口口口 |----|
口口口口 |----|
2
口口口口 |①---|
口①①口 |----|
口①①口 |----|
口口口口 |----|
3
口口口④ |①---|
口口口③ |②---|
口口口② |③---|
口口口① |④---|
4
口口①口 |①---|
口口②口 |②---|
口口③口 |③---|
口④⑤口 |④-⑤-|
5
④口口口 |①---|
③口口口 |②---|
②口口口 |③---|
①口口口 |④---|
6
口①口口 |①---|
口②口口 |②---|
口③口口 |③---|
口口④口 |④---|
7
口口口口 |①---|
①口口口 |----|
①口口口 |----|
口口口口 |----|
8
口口口口 |①---|
口口口① |----|
口口口① |----|
口口口口 |----|
9
口口口口 |①---|
①口口② |----|
①口口② |②---|
口口口口 |----|
10
口口口口 |①---|
①口口口 |----|
①口口口 |----|
口口口口 |----|
11
口口口口 |①---|
口①①口 |----|
口①①口 |----|
口口口口 |----|
12
口口口口 |----|
口口口口 |----|
口口口口 |----|
口口口口 |----|
13
①②④③ |①---|
口口口口 |②---|
口口口口 |③---|
口口口口 |④---|
14
口口口口 |①---|
口口②口 |②---|
口④①口 |③---|
口③口口 |④---|
15
③④②① |①---|
口口口口 |②---|
口口口口 |③---|
口口口口 |④---|
16
口口口口 |①---|
口②口口 |②---|
口①口口 |③---|
口口③口 |----|
17
口口④口 |①---|
①口口③ |②---|
口②口口 |③---|
口口口口 |④---|
18
口口口口 |①---|
口口②口 |②---|
口①口口
口口口口

口口口口
口口口口
口④口口 |③---|
口③口口 |④---|
19
口④口口 |①---|
③口①口 |②---|
口口口② |③---|
口口口口 |④---|
20
口口口口 |①---|
口②口口 |②---|
口口①口 |③---|
口口③口 |----|
21
口口口口 |①---|
口①口口 |----|
口口口口 |②---|
口口②口 |----|
22
口口②口 |①---|
口③口口 |----|
口口①口 |②---|
口口口口 |③---|
23
口口口口 |①---|
口口①口 |----|
口口口口 |②---|
口②口口 |----|
24
口口口口 |①---|
口口②口 |----|
口①口口 |②---|
口口口口 |----|
25
①口口① |①---|
口口口口 |----|
口口口口 |----|
口口口口 |----|
26
口口口口 |①---|
①口口① |----|
口口口口 |----|
口口口口 |----|
27
口口口口 |①---|
口口口口 |----|
①口口① |②---|
口②②口 |----|
28
④③③④ |①---|
口②②口 |②---|
口①①口 |③---|
口口口口 |④---|
29
口口口口 |①---|
口①①口 |----|
口口口口 |----|
口口口口 |----|
30
口口口口 |①---|
口口③口 |②---|
口④口② |③-④-|
口口⑤① |⑤---|
31
③③④④ |①---|
口口口口 |②---|
②口口口 |③---|
①口口口 |④---|
32
口口口口 |①---|
口口③口 |②---|
口④口② |③-④-|
口口⑤① |⑤---|
33
口口口口 |①---|
③③口口 |②---|
口口②② |③---|
①①口口 |----|
34
口口口口 |①---|
口口③口 |②---|
口④口② |③-④-|
口口⑤① |⑤---|
35
③③④④ |①---|
口口口口 |②---|
②口口口 |③---|
①口口口 |④---|
36
口口口口 |①---|
口口③口 |②---|
口④口② |③-④-|
口口⑤① |⑤---|
37
口口口口 |①---|
③③口口 |②---|
口口②② |③---|
①①口口 |----|
38
口口口口 |①---|
口②口④ |②---|
①口③口 |③---|
口口口口 |④---|
39
口口①口 |①---|
口②口口 |②---|
口口③口 |③---|
口④口口 |④---|
40
口口口口 |①---|
④口②口 |②---|
口③口① |③---|
口口口口 |④---|
41
口口①口 |①---|
口口②口 |②---|
口口③口 |③---|
口口口口 |----|
42
口口口口 |①---|
口②口④ |②---|
①口③口 |③---|
口口口口 |④---|
43
口口①口 |①---|
口②口口 |②---|
口口③口 |③---|
口④口口 |④---|
44
口口口口 |①---|
④口②口 |②---|
口③口① |③---|
口口口口 |④---|
45
口口①口 |①---|
口口②口 |②---|
口口③口 |③---|
口口口口 |----|
46
口口口④ |①---|
口口口③ |②---|
口口口② |③---|
口口口① |④---|
47
口口①口 |①---|
口口②口 |②---|
口口③口 |③---|
口④⑤口 |④-⑤-|
48
④口口口 |①---|
③口口口 |②---|
②口口口 |③---|
①口口口 |④---|
49
口①口口 |①---|
口②口口 |②---|
口③口口 |③---|
口口④口 |④---|
50
口口口口 |①---|
①口口口 |----|
①口口口 |----|
口口口口 |----|
51
口口口口 |①---|
口口口① |----|
口口口① |----|
口口口口 |----|
52
口口口口 |①---|
①口口② |----|
①口口② |②---|
口口口口 |----|
53
口口口口 |①---|
①口口口 |----|
①口口口 |----|
口口口口 |----|
54
口口口口 |①---|
口口②口 |----|
口口①口 |②---|
口口口口 |----|
55
口口口口 |①---|
口②口口 |----|
口①口口 |②---|
口口口口 |----|
56
口口口口 |①---|
口口②口 |----|
口口①口 |②---|
口口口口 |----|
57
口口口口 |①---|
①口口口 |②---|
②口口口 |③---|
③口口口 |----|
58
口口口口 |①---|
口口①① |----|
口口②口 |②---|
口③口口 |③---|
59
口口口口 |①---|
①①口口 |----|
口②口口 |②---|
口口③口 |③---|
60
口④口口 |①---|
口③口口 |②---|
口②口口 |③---|
口①口口 |④---|
61
口口①口 |①---|
口口②口 |②---|
口口③口 |③---|
口口④口 |④---|
62
口口口口 |①---|
口①①口 |----|
口口口口 |----|
口口口口 |----|
63
口口口口 |①---|
口口口口 |----|
口①①口 |----|
口口口口 |----|
64
口口口口 |①---|
口口③口 |②---|
口④口② |③-④-|
口口⑤① |⑤---|
65
③③④④ |①---|
口口口口 |②---|
②口口口 |③---|
①口口口 |④---|
66
口口口口 |①---|
口口③口 |②---|
口④口② |③-④-|
口口⑤① |⑤---|
67
口口口口 |①---|
③③口口 |②---|
口口②② |③---|
①①口口 |----|
68
口口口口 |①---|
口口③口 |②---|
口④口② |③-④-|
口口⑤① |⑤---|
69
③③④④ |①---|
口口口口 |②---|
②口口口 |③---|
①口口口 |④---|
70
口口口口 |①---|
口口③口 |②---|
口④口② |③-④-|
口口⑤① |⑤---|
71
口口口口 |①---|
③③口口 |②---|
口口②② |③---|
①①口口 |----|
72
口①①口 |①---|
口口口口 |----|
口口口口 |----|
口口口口 |----|

不確定度: 0

最終更新:2014年08月02日 00:36