Second Heaven
Ryu☆

ADVANCED

Level: 7
BPM: 149
Notes: 466

1
口口口口 |----|
口口口口 |----|
口口口口 |----|
口口口口 |----|
2
口口①① |①-②-|
口口口口 |----|
口口②② |----|
口口口口 |----|
3
口⑥⑧口 |①-②-|
口口口口 |③-④-|
④⑦⑤③ |⑤-⑥-|
②口口① |⑦-⑧-|
4
口⑤⑦口 |①-②-|
口口口口 |③-④-|
③⑧⑥④ |⑤-⑥-|
①口口② |⑦-⑧-|
5
口⑥⑧口 |①-②-|
口口口口 |③-④-|
④⑦⑤③ |⑤-⑥-|
②口口① |⑦-⑧-|
6
口口口口 |①-②-|
口⑤⑦口 |③-④-|
③口口④ |⑤-⑥-|
①⑧⑥② |⑦-⑧-|
7
口口①① |①-②-|
口口口口 |----|
口口②② |----|
口口口口 |----|
8
①①口口 |①-②-|
口口口口 |----|
②②口口 |----|
口口口口 |----|
9
②②①① |①---|
口口口口 |----|
口口口口 |②---|
口口口口 |----|
10
口口①① |①---|
口口口口 |----|
口口口口 |----|
口口口口 |----|
11
口口口口 |①---|
口①①口 |----|
口①①口 |----|
口口口口 |----|
12
口口口口 |----|
口口口口 |----|
口口口口 |----|
口口口口 |----|
13
口口③口 |--①-|
①②⑥口 |②-③-|
④⑤口口 |--④-|
口口口口 |⑤-⑥-|
14
口④口口 |--①-|
口口⑤口 |②-③-|
口⑥③口 |④-⑤-|
①②⑦口 |⑥-⑦-|
15
口口③口 |--①-|
①②⑥口 |②-③-|
④⑤口口 |--④-|
口口口口 |⑤-⑥-|
16
①口口② |①-②-|
③口口④ |③-④-|
口⑦⑧口 |⑤-⑥-|
口⑤⑥口 |⑦-⑧-|
17
口口③口 |--①-|
①②⑥口 |②-③-|
④⑤口口 |--④-|
口口口口 |⑤-⑥-|
18
口④口口 |--①-|
口口⑤口 |②-③-|
口⑥③口 |④-⑤-|
①②⑦口 |⑥-⑦-|
19
口口③口 |--①-|
①②⑥口 |②-③-|
④⑤口口 |--④-|
口口口口 |⑤-⑥-|
20
①⑦⑥② |①-②-|
③口口④ |③-④-|
口⑤⑧口 |⑤-⑥-|
口口口口 |⑦-⑧-|
21
口口口口 |--①-|
口③⑥口 |②-③-|
口②⑤口 |--④-|
口①④口 |⑤-⑥-|
22
口口口④ |--①-|
⑤③口口 |②-③-|
口②口⑥ |④-⑤-|
⑦①口口 |⑥-⑦-|
23
口口口口 |--①-|
口③⑥口 |②-③-|
口②⑤口 |--④-|
口①④口 |⑤-⑥-|
24
①口口口 |①-②-|
口⑤⑧② |③-④-|
③⑦口口 |⑤-⑥-|
口口⑥④ |⑦-⑧-|
25
①口口① |①---|
口口口口 |----|
口口口口 |----|
口口口口 |----|
26
口口口口 |①---|
①口口① |----|
口口口口 |----|
口口口口 |----|
27
口口口口 |①---|
口口口口 |----|
①口口① |②---|
口②②口 |----|
28
④③③④ |①---|
口②②口 |②---|
口①①口 |③---|
口口口口 |④---|
29
口口口口 |①---|
口①①口 |----|
口①①口 |----|
口口口口 |----|
30
口口口口 |①-②-|
②④③口 |③④⑤⑥|
①⑥⑤口
口口口口

口口口⑦
⑩口口⑧
口口口⑨ |⑦-⑧-|
口口口口 |⑨-⑩-|
31
①⑤口⑥ |①-②-|
口口②口 |③-④-|
口③口口 |⑤-⑥-|
口⑦④⑧ |⑦-⑧-|
32
口口口⑦ |①-②-|
②④③⑧ |③④⑤⑥|
①⑥⑤⑨ |⑦-⑧-|
⑩口口口 |⑨-⑩-|
33
⑤口口⑤ |①-②-|
口③②口 |③-④-|
口口口口 |⑤---|
口④①口 |----|
34
口口口口 |①-②-|
②④③口 |③④⑤⑥|
①⑥⑤口
口口口口

口口口⑦
⑩口口⑧
口口口⑨ |⑦-⑧-|
口口口口 |⑨-⑩-|
35
①⑤口⑥ |①-②-|
口口②口 |③-④-|
口③口口 |⑤-⑥-|
口⑦④⑧ |⑦-⑧-|
36
口口口⑦ |①-②-|
②④③⑧ |③④⑤⑥|
①⑥⑤⑨ |⑦-⑧-|
⑩口口口 |⑨-⑩-|
37
⑤口口⑤ |①-②-|
口③②口 |③-④-|
口口口口 |⑤---|
口④①口 |----|
38
口口③口 |--①-|
①②⑥口 |②-③-|
④⑤口口 |--④-|
口口口口 |⑤-⑥-|
39
口④口口 |--①-|
口口⑤口 |②-③-|
口⑥③口 |④-⑤-|
①②⑦口 |⑥-⑦-|
40
口口③口 |--①-|
①②⑥口 |②-③-|
④⑤口口 |--④-|
口口口口 |⑤-⑥-|
41
①口口② |①-②-|
③口口④ |③-④-|
口⑦⑧口 |⑤-⑥-|
口⑤⑥口 |⑦-⑧-|
42
口口③口 |--①-|
①②⑥口 |②-③-|
④⑤口口 |--④-|
口口口口 |⑤-⑥-|
43
口④口口 |--①-|
口口⑤口 |②-③-|
口⑥③口 |④-⑤-|
①②⑦口 |⑥-⑦-|
44
口口③口 |--①-|
①②⑥口 |②-③-|
④⑤口口 |--④-|
口口口口 |⑤-⑥-|
45
①口口② |①-②-|
③口口④ |③-④-|
口⑤口口 |⑤---|
口口口口 |----|
46
口⑥⑧口 |①-②-|
口口口口 |③-④-|
④⑦⑤③ |⑤-⑥-|
②口口① |⑦-⑧-|
47
口⑤⑦口 |①-②-|
口口口口 |③-④-|
③⑧⑥④ |⑤-⑥-|
①口口② |⑦-⑧-|
48
口⑥⑧口 |①-②-|
口口口口 |③-④-|
④⑦⑤③ |⑤-⑥-|
②口口① |⑦-⑧-|
49
口口口口 |①-②-|
口⑤⑦口 |③-④-|
③口口④ |⑤-⑥-|
①⑧⑥② |⑦-⑧-|
50
口口①① |①-②-|
口口口口 |----|
口口②② |----|
口口口口 |----|
51
①①口口 |①-②-|
口口口口 |----|
②②口口 |----|
口口口口 |----|
52
②②①① |①---|
口口口口 |----|
口口口口 |②---|
口口口口 |----|
53
口口①① |①---|
口口口口 |----|
口口口口 |----|
口口口口 |----|
54
口口口口 |①-②-|
②④③口 |③④⑤⑥|
①⑥⑤口
口口口口

口口口⑦
⑩口口⑧
口口口⑨ |⑦-⑧-|
口口口口 |⑨-⑩-|
55
①⑤口⑥ |①-②-|
口口②口 |③-④-|
口③口口 |⑤-⑥-|
口⑦④⑧ |⑦-⑧-|
56
口口口⑦ |①-②-|
②④③⑧ |③④⑤⑥|
①⑥⑤⑨ |⑦-⑧-|
⑩口口口 |⑨-⑩-|
57
⑤口口⑤ |①-②-|
口③②口 |③-④-|
口口口口 |⑤---|
口④①口 |----|
58
口口口⑤ |①-②-|
口②①⑥ |③-④-|
口④③⑦ |⑤-⑥-|
口口口口 |⑦---|
59
⑤口口口 |①-②-|
⑥①②口 |③-④-|
⑦③④口 |⑤-⑥-|
口口口口 |⑦---|
60
⑧⑥④② |①-②-|
⑦⑤③① |③-④-|
口口口口 |⑤-⑥-|
口口口口 |⑦-⑧-|
61
口⑥⑤口 |①-②-|
口⑧⑦口 |③-④-|
②⑩⑨① |⑤⑥⑦⑧|
④⑫⑪③ |⑨⑩⑪⑫|
62
口口口口 |----|
口口口口 |----|
口口口口 |----|
口口口口 |----|
63
口②①口 |①②③④|
口④③口 |⑤⑥⑦⑧|
口⑥⑤口 |----|
口⑧⑦口 |----|
64
口口口口 |①-②-|
②④③口 |③④⑤⑥|
①⑥⑤口
口口口口

口口口⑦
⑩口口⑧
口口口⑨ |⑦-⑧-|
口口口口 |⑨-⑩-|
65
①⑤口⑥ |①-②-|
口口②口 |③-④-|
口③口口 |⑤-⑥-|
口⑦④⑧ |⑦-⑧-|
66
口口口⑦ |①-②-|
②④③⑧ |③④⑤⑥|
①⑥⑤⑨ |⑦-⑧-|
⑩口口口 |⑨-⑩-|
67
⑤口口⑤ |①-②-|
口③②口 |③-④-|
口口口口 |⑤---|
口④①口 |----|
68
口口口口 |①-②-|
②④③口 |③④⑤⑥|
①⑥⑤口
口口口口

口口口⑦
⑩口口⑧
口口口⑨ |⑦-⑧-|
口口口口 |⑨-⑩-|
69
①⑤口⑥ |①-②-|
口口②口 |③-④-|
口③口口 |⑤-⑥-|
口⑦④⑧ |⑦-⑧-|
70
口口口⑦ |①-②-|
②④③⑧ |③④⑤⑥|
①⑥⑤⑨ |⑦-⑧-|
⑩口口口 |⑨-⑩-|
71
⑤口口⑤ |①-②-|
口③②口 |③-④-|
口口口口 |⑤---|
口④①口 |----|
72
口口口口 |①---|
口口口口 |----|
口①①口 |----|
口口口口 |----|

不確定度: 0

最終更新:2014年08月02日 00:36