閃光のPRISONER
南里侑香

BASIC

Level: 2
BPM: 183
Notes: 176

1
口口口口 |----|
口口口口 |----|
口口口口 |----|
口口口口 |----|
2
口口口口 |----|
口口口口 |----|
口口口口 |----|
口口口口 |----|
3
口口口口 |①---|
口口口① |----|
口口口口 |----|
口口口口 |----|
4
口口口口 |①---|
口口①口 |----|
口口口口 |----|
口口口口 |----|
5
口口口口 |①---|
口口口口 |----|
口①口口 |----|
口口口口 |----|
6
口口口口 |①---|
口口口口 |----|
①口口口 |----|
口口口口 |----|
7
②口口② |①---|
口①①口 |----|
口口口口 |----|
口口口口 |②---|
8
口口口口 |----|
口口口口 |----|
口口口口 |----|
口口口口 |----|
9
口口口口 |①---|
口口口口 |----|
口①①口 |----|
②口口② |②---|
10
口口口口 |----|
口口口口 |----|
口口口口 |----|
口口口口 |----|
11
口口口口 |①---|
②口口② |----|
口①①口 |----|
口口口口 |②---|
12
口口口口 |----|
口口口口 |----|
口口口口 |----|
口口口口 |----|
13
口口口口 |①---|
口①①口 |----|
口口口口 |----|
口口口口 |----|
14
口口口口 |----|
口口口口 |----|
口口口口 |----|
口口口口 |----|
15
口口①口 |①---|
口口②口 |----|
口口口口 |②---|
口口口口 |----|
16
口口口口 |①---|
口口口口 |----|
口口①口 |②---|
口口②口 |----|
17
口口口口 |①---|
口口口口 |----|
①②口口 |②---|
口口口口 |----|
18
口口口口 |①---|
口口口口 |----|
口口①② |②---|
口口口口 |----|
19
口①口口 |①---|
口②口口 |----|
口口口口 |②---|
口口口口 |----|
20
口口口口 |①---|
口口口口 |----|
口①口口 |②---|
口②口口 |----|
21
口口口口 |①---|
口②②口 |----|
口①①口 |②---|
口口口口 |----|
22
②①①② |①---|
口口口口 |----|
口口口口 |②---|
口口口口 |----|
23
口②①口 |①---|
口④③口 |②---|
口口口口 |③---|
口口口口 |④---|
24
口口口口 |①---|
口口口口 |②---|
口②①口 |③---|
口④③口 |④---|
25
口口口口 |①---|
口口口口 |----|
①口口① |----|
口口口口 |----|
26
口口口口 |①---|
①口口① |----|
口口口口 |----|
口口口口 |----|
27
口①②口 |①---|
口③④口 |②---|
口口口口 |③---|
口口口口 |④---|
28
口口口口 |①---|
口口口口 |②---|
口①②口 |③---|
口③④口 |④---|
29
口口口口 |①---|
口口口口 |----|
①口口① |----|
口口口口 |----|
30
①口口① |①---|
口②②口 |----|
口口口口 |②---|
口口口口 |----|
31
口口口口 |①---|
口口口口 |----|
口①①口 |----|
口口口口 |----|
32
口口口口 |①---|
口口口① |----|
口口口② |②---|
口口口口 |----|
33
口口口口 |①---|
口口口口 |----|
口①①口 |----|
口口口口 |----|
34
口口口口 |①---|
①口口口 |----|
②口口口 |②---|
口口口口 |----|
35
口口口口 |①---|
口口口口 |----|
口①①口 |----|
口口口口 |----|
36
口口口口 |①---|
口口口① |----|
口口口② |②---|
口口口口 |----|
37
口口口口 |①---|
口①①口 |----|
口口口口 |----|
口口口口 |----|
38
口口口口 |①---|
口口口口 |----|
口①①口 |----|
口口口口 |----|
39
口口口口 |①---|
④③②① |②---|
口口口口 |③---|
口口口口 |④---|
40
口口口口 |①---|
口口口口 |②---|
口②①口 |③---|
口④③口 |④---|
41
口口口口 |①---|
④③②① |②---|
口口口口 |③---|
口口口口 |④---|
42
口口口口 |①---|
口口口口 |②---|
口②①口 |③---|
口④③口 |④---|
43
口口口口 |①---|
②口口② |----|
①口口① |②---|
口口口口 |----|
44
①口口① |①---|
口口口口 |----|
口②②口 |②---|
口口口口 |----|
45
口②②口 |①---|
口①①口 |----|
口口口口 |②---|
口口口口 |----|
46
口口口口 |①---|
①②②① |----|
口②②口 |----|
口口口口 |--②-|
47
口口口口 |----|
口口口口 |----|
口口口口 |----|
口口口口 |----|
48
口口口口 |①---|
口③口口 |②---|
口②口口 |③---|
口①口口 |----|
49
口口口口 |①---|
口口③口 |②---|
口口②口 |③---|
口口①口 |----|
50
口①口口 |①---|
口②口口 |②---|
口③口口 |③---|
口口口口 |----|
51
口口①口 |①---|
口口②口 |②---|
口口③口 |③---|
口口口口 |----|
52
口口口口 |①---|
口口口口 |----|
口②口口 |②---|
口①①口 |----|
53
口口②口 |①---|
口①①口 |----|
口口口口 |②---|
口口口口 |----|
54
口口口口 |①---|
①口口① |----|
②口口② |②---|
口口口口 |----|
55
口口口口 |①---|
口①①口 |----|
口口口口 |----|
口口口口 |----|
56
口口口口 |①---|
口③口口 |②---|
口②口口 |③---|
口①口口 |----|
57
口口口口 |①---|
口口③口 |②---|
口口②口 |③---|
口口①口 |----|
58
口①口口 |①---|
口②口口 |②---|
口③口口 |③---|
口口口口 |----|
59
口口①口 |①---|
口口②口 |②---|
口口③口 |③---|
口口口口 |----|
60
口口口口 |①---|
口口口口 |----|
口②口口 |②---|
口①①口 |----|
61
口口②口 |①---|
口①①口 |----|
口口口口 |②---|
口口口口 |----|
62
口口口口 |①---|
①口口① |----|
②口口② |②---|
口口口口 |----|
63
口口口口 |①---|
口①①口 |----|
口口口口 |----|
口口口口 |----|
64
口口口口 |①---|
①口口① |----|
②口口② |②---|
口口口口 |----|
65
口口口口 |①---|
口①①口 |----|
口①①口 |----|
口口口口 |----|
66
口口口口 |----|
口口口口 |----|
口口口口 |----|
口口口口 |----|
67
口口口口 |①---|
口①①口 |----|
口口口口 |----|
口口口口 |----|
68
口口口口 |①---|
口口口口 |----|
口①①口 |----|
口口口口 |----|
69
口口口口 |①---|
①口口① |----|
口口口口 |----|
口口口口 |----|

不確定度: 0

最終更新:2014年08月02日 00:35