閃光のPRISONER
南里侑香

ADVANCED

Level: 6
BPM: 183
Notes: 304

1
口口口口 |----|
口口口口 |----|
口口口口 |----|
口口口口 |----|
2
口口口口 |----|
口口口口 |----|
口③口口 |--①-|
口①②口 |②-③-|
3
口口②① |①-②-|
④③口口 |③-④-|
口⑦口口 |--⑤-|
口⑤⑥口 |⑥-⑦-|
4
①②⑤口 |①-②-|
口⑥③④ |③-④-|
口口⑦口 |--⑤-|
口口口口 |⑥-⑦-|
5
③口口④ |①---|
②口口口 |②-③-|
口①口⑤ |--④-|
口口口口 |--⑤-|
6
口口口口 |--①-|
口③口口 |②-③-|
口口②口 |----|
口①口口 |----|
7
③③①① |①---|
口口②② |--②-|
口口口口 |----|
口口口口 |③---|
8
口口口口 |----|
口口口口 |----|
口口口口 |----|
口口口口 |----|
9
口口口口 |①---|
口口口口 |--②-|
①②口口 |----|
①②③③ |③---|
10
口口口口 |----|
口口口口 |----|
口口口口 |----|
口①①口 |①---|
11
口③③口 |①---|
口①①口 |--②-|
口②②口 |----|
口口口口 |③---|
12
口口口口 |----|
口口口口 |----|
口口口口 |----|
①口口① |①---|
13
口口口口 |①---|
口①①口 |----|
口口口口 |----|
口口口口 |----|
14
口口口口 |----|
口口口口 |----|
口口口口 |----|
口口口口 |----|
15
口口口口 |----|
口口口① |----|
口口口口 |----|
口口口口 |①---|
16
口口口口 |①---|
口①口口 |②---|
③口②口 |③---|
口口④④ |④---|
17
②②口口 |①---|
口口①① |--②-|
③③口口 |----|
口口口口 |③---|
18
口口口口 |----|
口口口口 |----|
口②口口 |----|
口口①口 |①-②-|
19
口口口口 |①---|
口口①口 |----|
口口口② |----|
口口口口 |②---|
20
②口口① |①---|
口口口口 |②---|
③口④口 |③---|
口口口口 |④---|
21
口①口口 |①---|
口③②口 |②-③-|
口口口口 |----|
口口④口 |--④-|
22
④口口④ |--①-|
口②③口 |--②-|
口口①口 |③---|
口口口口 |④---|
23
口②口口 |①---|
①口口① |----|
口口口口 |----|
口口口口 |②---|
24
口口口口 |①---|
口①口口 |②---|
口④③口 |③---|
口②口口 |④---|
25
口④③口 |①---|
②口①口 |--②-|
口口口口 |--③-|
口口口口 |④---|
26
口口口口 |----|
口②①口 |----|
口口③口 |--①-|
口口口口 |②-③-|
27
口口口口 |①---|
口口口口 |----|
口①口② |----|
口口口口 |②---|
28
口口口口 |①---|
②口口① |----|
口口口口 |②---|
口口口口 |----|
29
口口口口 |①---|
口口口口 |----|
口①①口 |----|
口口口口 |----|
30
口口口口 |----|
①口口① |--①-|
②口口② |--②-|
口口口口 |----|
31
口口①① |①---|
②②口口 |--②-|
口口③③ |----|
口口口口 |③---|
32
口口口口 |①---|
口③②口 |--②-|
口口口口 |③---|
①①口口 |----|
33
①①口口 |①---|
口口②② |--②-|
③③口口 |----|
口口口口 |③---|
34
口口口口 |①---|
口②③口 |--②-|
口口口口 |③---|
口口①① |----|
35
口口①① |①---|
②②口口 |--②-|
口口③③ |----|
口口口口 |③---|
36
口口口口 |①---|
口③②口 |--②-|
口口口口 |③---|
①①口口 |----|
37
⑦口口⑦ |①-②-|
口⑥⑤口 |③-④-|
口④③口 |⑤-⑥-|
口②①口 |--⑦-|
38
口口口口 |----|
口口口口 |①-②-|
口②①口 |----|
口口口口 |----|
39
①①口口 |①---|
口口②② |--②-|
③③口口 |----|
口口口口 |③---|
40
口口口口 |①---|
口②③口 |--②-|
口口口口 |③---|
口口①① |----|
41
口口①① |①---|
②②口口 |--②-|
口口③③ |----|
口口口口 |③---|
42
口口口口 |①---|
口③②口 |--②-|
口口口口 |③---|
①①口口 |----|
43
口口口④ |①---|
⑤③口口 |--②-|
口口②口 |③--④|
口①①口 |--⑤-|
44
④口口口 |①---|
口口③⑤ |--②-|
①②口口 |③--④|
口口口口 |--⑤-|
45
口口口④ |①---|
⑤③口口 |--②-|
口口②① |③--④|
口口口口 |--⑤-|
46
③口口② |①---|
③口口② |----|
①口口口 |----|
口口口口 |②-③-|
47
口口⑤口 |--①-|
口④③口 |--②-|
口①①口 |--③-|
口②②口 |④-⑤-|
48
口①口口 |①-②-|
口口口口 |③-④-|
口④③②
口口口口

口⑦口口
口⑤⑥口
口口口口 |--⑤-|
口口口口 |⑥-⑦-|
49
口口①口 |①-②-|
口口口口 |③-④-|
②③④⑦ |--⑤-|
⑥口口⑤ |⑥-⑦-|
50
口口②口 |①---|
口③口口 |②-③-|
①口口口 |--④-|
口⑤④口 |--⑤-|
51
口口③④ |--①-|
口②⑤口 |②-③-|
口口①口 |----|
口口口口 |④-⑤-|
52
⑤口④口 |①---|
②⑥口口 |②-③-|
③①口口 |--④-|
口口口口 |⑤-⑥-|
53
口口口口 |①-②-|
口口口③ |③-④-|
口②①④ |----|
口口口口 |----|
54
口①①口 |①---|
口③②口 |②-③-|
⑤口口④ |--④-|
口口口⑥ |⑤-⑥-|
55
口口③口 |----|
口②①口 |----|
口口口口 |--①-|
口口口口 |②-③-|
56
口①口口 |①-②-|
口口口口 |③-④-|
口④③②
口口口口

口⑦口口
口⑤⑥口
口口口口 |--⑤-|
口口口口 |⑥-⑦-|
57
口口①口 |①-②-|
口口口口 |③-④-|
②③④⑦ |--⑤-|
⑥口口⑤ |⑥-⑦-|
58
口口②⑤ |①---|
口③口④ |②-③-|
①口口口 |--④-|
口口口口 |--⑤-|
59
口③口口 |--①-|
口口②口 |②-③-|
口①口口 |----|
口口口口 |----|
60
口④⑤口 |①---|
①⑥口口 |②-③-|
口口②口 |--④-|
口③口口 |⑤-⑥-|
61
口口口口 |①-②-|
口口①口 |③-④-|
口②③口 |----|
口④口口 |----|
62
口①①口 |①---|
口③②口 |②-③-|
⑤口口④ |--④-|
口口口⑥ |⑤-⑥-|
63
口口口口 |----|
口口口口 |----|
口①②口 |----|
口口口口 |①-②-|
64
⑤⑤⑤⑤ |①---|
③①口② |②-③-|
③口口② |--④-|
口④④口 |--⑤-|
65
口口口口 |----|
口口口口 |----|
口口口口 |----|
口口口口 |----|
66
口口口口 |----|
口口口口 |----|
口口口口 |----|
口口口口 |----|
67
口口口口 |①---|
口②③口 |②-③-|
口②③口 |----|
①口口① |----|
68
⑤⑤⑤⑤ |①-②-|
②口口① |--③-|
②④④① |--④-|
口③③口 |--⑤-|

不確定度: 0

最終更新:2014年08月02日 00:34