量子の海のリントヴルム
黒猫ダンジョン

EXTREME

Level: 10
BPM: 280
Notes: 801

實際BPM: 140
1
口口口口 |----|
口口口口 |----|
口口口口 |----|
口口口口 |----|
2
口①口口 |---①|
口口口④ |--②-|
口②口口 |--③-|
口口口③ |-④|
3
口口④口 |---①|
①口口口 |--②-|
口口③口 |--③-|
②口口口 |-④|
4
⑧②⑩④ |①②③④|
①⑨③⑪ |⑤⑥⑦⑧|
口⑤⑬⑦ |⑨⑩⑪⑫|
口⑫⑥⑭ |⑬⑭|
5
③⑦口口 |①--②|
口口①口 |-③-④|
口①⑤④ |⑤-⑥-|
口⑥②口 |⑦-|
6
口口①④ |①②-③|
口⑤⑥② |-④-⑤|
⑪⑦⑧③ |⑥⑦⑧⑨|
口⑨⑩口 |⑩⑪|
7
②①①⑧ |①---|
⑦③口口 |②③④-|
口口④⑥ |--⑤⑥|
⑤口口口 |⑦⑧|
8
③⑦口口 |①--②|
口口①口 |-③-④|
口①⑤④ |⑤-⑥-|
口⑥②口 |⑦-|
9
口口①④ |①②-③|
口⑤⑥② |-④-⑤|
⑪⑦⑧③ |⑥⑦⑧⑨|
口⑨⑩口 |⑩⑪|
10
②①①⑧ |①---|
⑦③口口 |②③④-|
口口④⑥ |--⑤⑥|
⑤口口口 |⑦⑧|
11
口口⑥口 |①--②|
口口①③ |-③-④|
②①⑤口 |⑤-⑥-|
口口④口 |--|
12
口口口口 |①--②|
口口①口 |-③-④|
口①口口
②③④口

口口⑥口
口⑦⑧口
口口⑤口 |⑤-⑥-|
口口口口 |⑦⑧|
13
③⑪⑥⑦ |-①②③|
②⑩⑮⑭ |④⑤⑥⑦|
①⑨④⑤ |⑧⑨⑩⑪|
口⑧⑬⑫ |⑫⑬⑭⑮|
14
口④⑤⑥ |-①-②|
②③口口 |③④⑤⑥|
①口口①
口口口口

口口口口
口口⑧⑦
⑫⑪口口 |⑦⑧⑨⑩|
⑭⑬⑩⑨ |⑪⑫⑬⑭|
15
口②④⑥ |-①②③|
①③⑤⑦ |④⑤⑥⑦|
⑮⑩⑪⑬ |⑧⑨⑩⑪|
⑭⑨⑧⑫ |⑫⑬⑭⑮|
16
①口②口 |-①-②|
口③⑤口 |③④⑤⑥|
口④⑥口
口口口口

⑫口⑬口
⑪口口口
⑧口口⑩ |⑦⑧⑨⑩|
⑦口口⑨ |⑪⑫⑬-|
17
口④口口 |①--②|
口③①口 |-③④-|
口①口口
口口②口

口口口口
口口⑥口
口口口口 |-⑤-⑥|
口⑤口口
18
③⑦①⑤ |①-②③|
②⑥⑧④ |-④⑤-|
口口口口 |⑥⑦-⑧|
口口口口
19
⑩口口⑫ |①②③④|
⑨口口⑪ |⑤⑥⑦⑧|
⑥②④⑧ |⑨⑩⑪⑫|
⑤①③⑦
20
口口口口 |①-②③|
口①①口 |-④⑤-|
③⑦口⑤ |⑥⑦-⑧|
②⑥⑧④
21
②⑥⑦② |①②-③|
③①⑤③ |-④--|
④⑩①④ |⑤⑥⑦⑧|
口⑧⑨口 |⑨⑩--|
22
②口口② |①②-③|
③①口③ |-④--|
④口①④
口口口口

口⑥⑦⑪
口口⑤⑫
口⑩口⑬ |⑤⑥⑦⑧|
口⑧⑨⑭ |⑨-⑩-⑪⑫⑬⑭|
23
口⑥口口 |①--②|
①口②⑦ |--③-|
口④⑤口 |-④⑤-|
口口③口 |⑥--⑦|
24
口口口口 |--①-|
口①口口 |-②--|
口③口② |③--④|
口⑤口④ |--⑤-|
25
口口口口 |---①|
⑥口⑤口 |--②-|
③④②口 |-③④-|
①口口口 |⑤--⑥|
26
②口①口 |--①-|
口口口口 |-②--|
口口口口
口口口口

⑩口口口
⑧口③⑨
口⑥⑦口 |③④⑤⑥|
口④⑤口 |⑦⑧⑨⑩|
27
口③②① |①②③④|
口口口口 |⑤⑥⑦⑧|
口口⑧⑦
口⑥⑤④

⑬⑭⑮⑯
口⑫⑪⑩
口⑨口口 |⑨⑩⑪⑫|
口口口口 |⑬⑭⑮⑯|
28
⑨口口口 |①②③④|
⑩口⑧⑦ |⑤⑥⑦⑧|
⑪⑥⑤④ |⑨⑩⑪⑫|
⑫③②① |----|
29
口③②① |①②③④|
口口口口 |⑤⑥⑦⑧|
口口⑧⑦
口⑥⑤④

⑬⑭⑮⑯
口⑫⑪⑩
口⑨口口 |⑨⑩⑪⑫|
口口口口 |⑬⑭⑮⑯|
30
⑨⑭口口 |①②③④|
⑩⑬⑧⑦ |⑤⑥⑦⑧|
⑪⑥⑤④ |⑨⑩⑪⑫|
⑫③②① |-⑬⑭-|
31
口⑪口⑩ |①②③④|
④⑧②⑥ |⑤⑥-⑦|
口口⑨口 |⑧⑨⑩⑪|
⑦③⑤① |----|
32
⑬⑭⑩⑪ |①②③④|
④⑧②⑥ |⑤⑥⑦⑧|
⑯⑫⑮⑨ |⑨⑩⑪⑫|
⑦③⑤① |⑬⑭⑮⑯|
33
⑤口口⑥ |-①②-|
①⑨⑩② |③④-⑤|
⑦⑩⑨⑧ |⑥-⑦⑧|
③口口④ |-⑨-⑩|
34
③①②③ |--①-|
①口口② |②-③-|
口口口口
口口口口
35
⑫⑭⑩口 |①②③④|
⑮⑪⑬⑨ |⑤⑥⑦⑧|
④⑦②⑤ |⑨⑩⑪⑫|
⑧③⑥① |-⑬⑭⑮|
36
⑧口⑥口 |①②③④|
口⑦口⑤ |⑤⑥⑦⑧|
④口②口
口③口①

口口口口
口口口口
口⑪⑭⑨ |⑨⑩⑪⑫|
⑫⑬⑩⑮ |-⑬⑭⑮|
37
⑤口口⑥ |-①②-|
①⑨⑩② |③④-⑤|
③⑩⑨④ |⑥-⑦⑧|
⑦口口⑧ |-⑨-⑩|
38
口②①口 |--①-|
①口口② |②-③-|
⑦⑧⑥⑤ |④⑤⑥⑦|
③⑨③④ |⑧⑨|
39
④⑤③② |①②③④|
口⑥口① |⑤⑥⑦⑧|
⑩⑪⑨⑧ |⑨⑩⑪⑫|
口⑫口⑦
40
④⑤③② |①②③④|
口⑥口① |⑤⑥⑦⑧|
⑩⑪⑨⑧ |⑨⑩⑪⑫|
口⑫口⑦
41
②口口③ |①---|
口口口口 |----|
口口口口 |---②|
④口①⑤ |③④⑤-|
42
口口口口 |①②③④|
口⑥口口 |-⑤-⑥|
①②③④
口⑤口口

口⑦⑨⑩
口口⑧口
⑫口口口 |⑦⑧⑨⑩|
⑪口口口 |⑪⑫|
43
⑩⑤⑬⑫ |①②③④|
⑨④⑥⑪ |⑤⑥⑦⑧|
口⑭③② |⑨⑩⑪⑫|
口⑦⑧① |⑬⑭|
44
⑧口口⑩ |①②-③|
⑦①②⑨ |④⑤⑥-|
口口口口 |⑦⑧⑨⑩|
③④⑥⑤
45
口口口口 |①②③④|
口⑥口口 |-⑤-⑥|
①②③④
口⑤口口

口⑦⑨⑩
口口⑧口
⑫口口口 |⑦⑧⑨⑩|
⑪口口口 |⑪⑫|
46
⑩⑤⑬⑫ |①②③④|
⑨④⑥⑪ |⑤⑥⑦⑧|
口⑭③② |⑨⑩⑪⑫|
口⑦⑧① |⑬⑭|
47
⑧口口⑩ |①②-③|
⑦①②⑨ |④⑤⑥-|
口口口口 |⑦⑧⑨⑩|
③④⑥⑤
48
⑫⑤④⑭ |①②③④|
⑪②③⑬ |⑤-⑥-|
⑧①⑥⑩ |⑦⑧⑨⑩|
⑦口口⑨ |⑪⑫⑬⑭|
49
⑩④③⑫ |①-②-|
⑨②①⑪ |③-④-|
⑥③④⑧ |⑤⑥⑦⑧|
⑤①②⑦ |⑨⑩⑪⑫|
50
口口④⑩ |①②③④|
⑪⑤③⑨ |-⑤-⑥|
⑧②⑥⑫ |⑦⑧⑨⑩|
⑦①口口 |-⑪-⑫|
51
⑮②④⑯ |①②③④|
⑬①③⑭ |⑤⑥⑦⑧|
⑪⑥⑧⑫ |⑨⑩⑪⑫|
⑨⑤⑦⑩ |⑬⑭⑮⑯|
52
⑫⑤④⑭ |①②③④|
⑪②③⑬ |⑤-⑥-|
⑧①⑥⑩ |⑦⑧⑨⑩|
⑦口口⑨ |⑪⑫⑬⑭|
53
⑩④③⑫ |①-②-|
⑨②①⑪ |③-④-|
⑥③④⑧ |⑤⑥⑦⑧|
⑤①②⑦ |⑨⑩⑪⑫|
54
口口④⑩ |①②③④|
⑪⑤③⑨ |-⑤-⑥|
⑧②⑥⑫ |⑦⑧⑨⑩|
⑦①口口 |-⑪-⑫|
55
⑮②④⑯ |①②③④|
⑬①③⑭ |⑤⑥⑦⑧|
⑪⑥⑧⑫ |⑨⑩⑪⑫|
⑨⑤⑦⑩ |⑬⑭⑮⑯|
56
口③⑥口 |①②③④|
⑧②⑤口 |⑤⑥⑦⑧|
口④④口
⑦①①⑦

⑨口口⑪
口⑯口⑩
口⑭⑮口 |⑨⑩⑪⑫|
口⑫⑬口 |⑬⑭⑮⑯|
57
⑤②⑨⑥ |①②③④|
⑩口③⑩ |⑤⑥⑦⑧|
④⑧口④ |⑨⑩--|
①⑦⑦① |----|
58
口③⑥口 |①②③④|
⑧②⑤口 |⑤⑥⑦⑧|
口④④口
⑦①①⑦

⑨口口⑪
口⑯口⑩
口⑭⑮口 |⑨⑩⑪⑫|
口⑫⑬口 |⑬⑭⑮⑯|
59
⑤②③⑥ |①②③④|
⑦⑩⑩⑦ |⑤⑥⑦⑧|
④⑧⑨④ |⑨⑩--|
①⑩⑩① |----|
60
口口口口 |①②③④|
⑥口口③ |⑤⑥|
⑤口口②
④口口①
61
口口口口 |①②③④|
⑫⑥③⑨ |⑤⑥⑦⑧|
⑪⑤②⑧ |⑨⑩⑪⑫|
⑩①④⑦
62
⑪③⑥口 |①②③④|
⑩⑤②⑧ |⑤⑥⑦⑧|
⑨④①⑦ |-⑨⑩⑪|
口口口口
63
口口口口 |①②③④|
⑫⑥③⑨ |⑤⑥⑦⑧|
⑪⑤②⑧ |⑨⑩⑪⑫|
⑩①④⑦
64
⑪③⑥口 |①②③④|
⑩⑤②⑧ |⑤⑥⑦⑧|
⑨④①⑦ |-⑨⑩⑪|
口口口口
65
口口口口 |①②③④|
⑫⑥③⑨ |⑤⑥⑦⑧|
⑪⑤②⑧ |⑨⑩⑪⑫|
⑩①④⑦
66
⑪③⑥口 |①②③④|
⑩⑤②⑧ |⑤⑥⑦⑧|
⑨④①⑦ |-⑨⑩⑪|
口口口口
67
口口口口 |①②③④|
⑫⑥③⑨ |⑤⑥⑦⑧|
⑪⑤②⑧ |⑨⑩⑪⑫|
⑩①④⑦
68
⑫③⑥⑨ |①②③④|
⑪⑤②⑧ |⑤⑥⑦⑧|
⑩④①⑦ |⑨⑩⑪⑫|
口口口口
69
口②②口 |①---|
④④④④ |-②--|
③③③③ |--③-|
口①①口 |---④|


不確定度: 0

タグ:

+ タグ編集
  • タグ:

このサイトはreCAPTCHAによって保護されており、Googleの プライバシーポリシー利用規約 が適用されます。

最終更新:2013年03月29日 19:53