ホーンテッド★メイドランチ
日向美ビタースイーツ♪

BASIC

Level: 3
BPM: 188
Notes: 231

1
口口口口 |----|
口口口口 |----|
口口口口 |----|
口口口口 |----|
2
口口口口 |①---|
口①①口 |----|
口①①口 |----|
口口口口 |----|
3
口口口口 |----|
口口口口 |----|
口口口口 |----|
口口口口 |----|
4
口口口口 |①---|
口①①口 |----|
口①①口 |----|
口口口口 |----|
5
口口口口 |----|
口口口口 |----|
口口口口 |----|
口口口口 |----|
6
①①②② |①---|
口口口口 |----|
口口口口 |②---|
口口口口 |----|
7
口口口口 |①---|
①①②② |----|
口口口口 |②---|
口口口口 |----|
8
口口口口 |①---|
口口口口 |----|
①①②② |②---|
口口口口 |----|
9
口口口口 |①---|
口口口口 |----|
口口口口 |②---|
①①②② |----|
10
口口口口 |①---|
口①①口 |----|
口口口口
口口口口
11
①②口口 |①---|
口口口口 |----|
口口口口 |②---|
口口口口 |----|
12
口口①② |①---|
口口口口 |----|
口口口口 |②---|
口口口口 |----|
13
口口口口 |①---|
口①②口 |----|
口口口口 |②---|
口口口口 |----|
14
①口口① |①---|
口口口口 |----|
口口口口 |----|
口口口口 |----|
15
口口口口 |①---|
口口口口 |----|
①②口口 |②---|
口口口口 |----|
16
口口口口 |①---|
口口口口 |----|
口口①② |②---|
口口口口 |----|
17
口口口口 |①---|
口口口口 |----|
口口口口 |②---|
口①②口 |----|
18
口口口口 |①---|
②口口② |----|
①口口① |②---|
口口口口 |----|
19
口①口口 |①---|
口口②口 |②---|
口③口口 |③---|
口口④口 |④---|
20
口口口口 |①---|
口③口口 |②---|
口口②口 |③---|
口①口口 |----|
21
①口口口 |①---|
口口口② |②---|
③口口口 |③---|
口口口④ |④---|
22
口口口口 |①---|
口③口口 |②---|
口口②口 |③---|
口①口口 |----|
23
口①口口 |①---|
口口②口 |②---|
口③口口 |③---|
口口④口 |④---|
24
口口口口 |①---|
口③口口 |②---|
口口②口 |③---|
口①口口 |----|
25
口口口口 |①---|
①口口① |----|
口口口口 |----|
口口口口 |----|
26
口口口口 |①---|
口口口口 |----|
①口口① |----|
口口口口 |----|
27
口口口口 |①---|
口口口口 |----|
口①①口 |----|
口口口口 |----|
28
口口口口 |①---|
口①①口 |----|
口口口口 |----|
口口口口 |----|
29
①口口① |①---|
口口口口 |----|
口口口口 |----|
口口口口 |----|
30
口口口口 |①---|
口口口口 |----|
①口口① |----|
口口口口 |----|
31
口口口口 |①---|
口口口口 |----|
口①①口 |----|
口口口口 |----|
32
口口口口 |①---|
口①①口 |----|
口口口口 |----|
口口口口 |----|
33
①口口① |①---|
口口口口 |----|
口口口口 |----|
口口口口 |----|
34
口口口口 |①---|
口口口口 |----|
①口口① |----|
口口口口 |----|
35
口①口口 |①---|
口口②口 |②---|
口③口口 |③---|
口口④口 |④---|
36
口口口口 |①---|
口③口口 |②---|
口口②口 |③---|
口①口口 |----|
37
①口口口 |①---|
口口口② |②---|
③口口口 |③---|
口口口④ |④---|
38
口口口口 |①---|
口③口口 |②---|
口口②口 |③---|
口①口口 |----|
39
口①口口 |①---|
口口②口 |②---|
口③口口 |③---|
口口④口 |④---|
40
口口口口 |①---|
口③口口 |②---|
口口②口 |③---|
口①口口 |----|
41
口口口口 |①---|
①口口① |----|
口口口口 |----|
口口口口 |----|
42
口口口口 |①---|
口口口口 |----|
①口口① |----|
口口口口 |----|
43
口口口口 |①---|
口口口口 |----|
口①①口 |----|
口口口口 |----|
44
口口口口 |①---|
口①①口 |----|
口口口口 |----|
口口口口 |----|
45
①口口① |①---|
口口口口 |----|
口口口口 |----|
口口口口 |----|
46
口口口口 |①---|
口口口口 |----|
①口口① |----|
口口口口 |----|
47
口口口口 |①---|
口口口口 |----|
口①①口 |----|
口口口口 |----|
48
口口口口 |①---|
口①①口 |----|
口口口口 |----|
口口口口 |----|
49
①口口① |①---|
口口口口 |----|
口口口口 |----|
口口口口 |----|
50
口口口口 |①---|
口口口口 |----|
①口口① |----|
口口口口 |----|
51
口口④口 |①---|
口③口口 |②---|
口口②口 |③---|
口①口口 |④---|
52
口口口口 |①---|
①口口① |----|
②口口② |②---|
口口口口 |----|
53
口④口口 |①---|
口口③口 |②---|
口②口口 |③---|
口口①口 |④---|
54
口口口口 |①---|
①口口① |----|
②口口② |②---|
口口口口 |----|
55
口口④口 |①---|
口③口口 |②---|
口口②口 |③---|
口①口口 |④---|
56
②口口② |①---|
①口口① |----|
口口口口 |②---|
口口口口 |----|
57
口口口口 |①---|
口①①口 |----|
口②②口 |②---|
口口口口 |----|
58
口口口口 |①---|
①口口① |----|
②口口② |②---|
口口口口 |----|
59
口口口口 |①---|
口口口口 |----|
口口口口 |②---|
口①②口 |----|
60
口口口口 |①---|
口口口口 |----|
口①②口 |②---|
口口口口 |----|
61
口口口口 |①---|
口①②口 |----|
口口口口 |②---|
口口口口 |----|
62
口①②口 |①---|
口口口口 |----|
口口口口 |②---|
口口口口 |----|
63
①口口② |①---|
口口口口 |----|
口口口口 |②---|
口口口口 |----|
64
口口口口 |①---|
①口口② |----|
口口口口 |②---|
口口口口 |----|
65
口口口口 |①---|
口口口口 |----|
①口口② |②---|
口口口口 |----|
66
口口口口 |①---|
口口口口 |----|
口口口口 |②---|
①口口② |----|
67
口口口口 |①---|
口口口口 |----|
口①口口 |----|
口口口口 |----|
68
口口口口 |①---|
口口①口 |----|
口口口口 |----|
口口口口 |----|
69
口口口口 |①---|
口口口口 |----|
口①口口 |----|
口口口口 |----|
70
口口口口 |①---|
口口①口 |----|
口口口口 |----|
口口口口 |----|
71
口口口口 |①---|
口口口口 |----|
口①口口 |----|
口口口口 |----|
72
口口口口 |①---|
口口口口 |----|
口口①口 |----|
口口口口 |----|
73
口口口口 |①---|
口口口口 |----|
口口口口 |----|
①口口口 |----|
74
口口口口 |①---|
口口口口 |----|
口口口口 |----|
口口口① |----|
75
口口口口 |----|
口口口口 |----|
口口口口 |----|
口口口口 |----|
76
口口口口 |①---|
口口口口 |----|
口①①口 |----|
口口口口 |----|
77
口口口口 |①---|
口①①口 |----|
口口口口 |----|
口口口口 |----|
78
①口口① |①---|
口口口口 |----|
口口口口 |----|
口口口口 |----|
79
口口口口 |①---|
口口口口 |----|
①口口① |----|
口口口口 |----|
80
口口口口 |①---|
口口口口 |----|
口①①口 |----|
口口口口 |----|
81
口口口口 |①---|
口①①口 |----|
口口口口 |----|
口口口口 |----|
82
①口口① |①---|
口口口口 |----|
口口口口 |----|
口口口口 |----|
83
口口口口 |①---|
口口口口 |----|
①口口① |----|
口口口口 |----|
84
口口④口 |①---|
口③口口 |②---|
口口②口 |③---|
口①口口 |④---|
85
口口口口 |①---|
①口口① |----|
②口口② |②---|
口口口口 |----|
86
口④口口 |①---|
口口③口 |②---|
口②口口 |③---|
口口①口 |④---|
87
口口口口 |①---|
①口口① |----|
②口口② |②---|
口口口口 |----|
88
口口④口 |①---|
口③口口 |②---|
口口②口 |③---|
口①口口 |④---|
89
②口口② |①---|
①口口① |----|
口口口口 |②---|
口口口口 |----|
90
口口口口 |①---|
口①①口 |----|
口②②口 |②---|
口口口口 |----|
91
口口口口 |①---|
①③口① |----|
②口口② |②---|
口口口口 |③---|

不確定度: 0

最終更新:2014年08月02日 00:33