ロストワンの号哭
Neru

BASIC

Level: 4
BPM: 162
Notes: 336

1
口口口口 |----|
口口口口 |----|
口口口口 |----|
口口口口 |----|
2
口口口口 |①---|
④②②④ |②---|
③①①③ |③---|
口口口口 |④---|
3
口口口口 |①---|
口②②口 |②---|
③①①③ |③---|
口口④口 |④---|
4
口口口口 |①---|
口④②口 |②---|
口①③口 |③---|
口口口口 |④---|
5
口口口口 |①---|
④口口② |②---|
①口口③ |③---|
口口口口 |④---|
6
口④②口 |①---|
口口口口 |②---|
口口口口 |③---|
口①③口 |④---|
7
④口口② |①---|
口口口口 |②---|
口口口口 |③---|
①口口③ |④---|
8
口口口口 |①---|
口④②口 |②---|
口①③口 |③---|
口口口口 |④---|
9
口口口口 |①---|
④口口② |②---|
①口口③ |③---|
口口口口 |④---|
10
口④②口 |①---|
口口口口 |②---|
口口口口 |③---|
口①③口 |④---|
11
④口口② |①---|
口口口口 |②---|
口口口口 |③---|
①口口③ |④---|
12
口口口口 |①---|
口②①口 |----|
口口口口 |②---|
口口口口 |----|
13
口口口口 |①---|
口口口口 |②---|
口③②① |③---|
口口口口 |----|
14
口口口口 |①---|
口口口口 |----|
口口口口 |②---|
口②①口 |----|
15
口口口口 |①---|
口口口口 |②---|
③②①口 |③---|
口口口口 |----|
16
口口口口 |①---|
口①②口 |----|
口口口口 |②---|
口口口口 |----|
17
①②③口 |①---|
口口口口 |②---|
口口口口 |③---|
口口口口 |----|
18
口口口口 |①---|
口①②口 |----|
口口口口 |②---|
口口口口 |----|
19
口口口口 |①---|
口口口口 |②---|
口①②③ |③---|
口口口口 |----|
20
口口口口 |①---|
口④②口 |②---|
口①③口 |③---|
口口口口 |④---|
21
口口口口 |①---|
④口口② |②---|
①口口③ |③---|
口口口口 |④---|
22
口④②口 |①---|
口口口口 |②---|
口口口口 |③---|
口①③口 |④---|
23
④口口② |①---|
口口口口 |②---|
口口口口 |③---|
①口口③ |④---|
24
口口口口 |①---|
口④②口 |②---|
口①③口 |③---|
口口口口 |④---|
25
口口口口 |①---|
④口口② |②---|
①口口③ |③---|
口口口口 |④---|
26
口④②口 |①---|
口口口口 |②---|
口口口口 |③---|
口①③口 |④---|
27
④口口② |①---|
口口口口 |②---|
口口口口 |③---|
①口口③ |④---|
28
口口口口 |①---|
口口口口 |----|
口①②口 |②---|
口口口口 |----|
29
口口口口 |①---|
口①②③ |②---|
口口口口 |③---|
口口口口 |----|
30
口①②口 |①---|
口口口口 |----|
口口口口 |②---|
口口口口 |----|
31
口口口口 |①---|
③②①口 |②---|
口口口口 |③---|
口口口口 |----|
32
口口口口 |①---|
口口口口 |----|
口②①口 |②---|
口口口口 |----|
33
口口口口 |①---|
口口口口 |②---|
口口口口 |③---|
①②③口 |----|
34
口口口口 |①---|
口口口口 |----|
口①②口 |②---|
口口口口 |----|
35
口口口口 |①---|
口①②③ |②---|
口口口口 |③---|
口口口口 |----|
36
①①②② |①---|
口口口口 |----|
口口口口 |②---|
口口口口 |----|
37
口口口口 |①---|
口口口口 |----|
①①②② |②---|
口口口口 |----|
38
口口口口 |①---|
①①②② |----|
口口口口 |②---|
口口口口 |----|
39
口口口口 |①---|
口口口口 |----|
口口口口 |②---|
①①②② |----|
40
①①②② |①---|
口口口口 |----|
口口口口 |②---|
口口口口 |----|
41
口口口口 |①---|
口口口口 |----|
①①②② |②---|
口口口口 |----|
42
口口口口 |①---|
①①②② |----|
口口口口 |②---|
口口口口 |----|
43
口口口口 |①---|
口②②口 |----|
口①①口 |②---|
口口口口 |----|
44
①②③④ |①---|
口口口口 |②---|
口口口口 |③---|
口口口口 |④---|
45
口口口口 |①---|
口①②口 |----|
口①②口 |②---|
口口口口 |----|
46
口口口口 |①---|
口口口口 |②---|
口口口口 |③---|
①②③④ |④---|
47
口口口口 |①---|
口①②口 |----|
口①②口 |②---|
口口口口 |----|
48
①②③④ |①---|
口口口口 |②---|
口口口口 |③---|
口口口口 |④---|
49
口口口口 |①---|
口①②口 |----|
口①②口 |②---|
口口口口 |----|
50
②口口② |①---|
口口口口 |----|
口口口口 |②---|
①口口① |----|
51
口②②口 |①---|
口口口口 |----|
口口口口 |②---|
口①①口 |----|
52
①②③④ |①---|
口口口口 |②---|
口口口口 |③---|
口口口口 |④---|
53
口口口口 |①---|
口①②口 |----|
口①②口 |②---|
口口口口 |----|
54
口口口口 |①---|
口口口口 |②---|
口口口口 |③---|
①②③④ |④---|
55
口口口口 |①---|
口①②口 |----|
口①②口 |②---|
口口口口 |----|
56
①②③④ |①---|
口口口口 |②---|
口口口口 |③---|
口口口口 |④---|
57
口口口口 |①---|
口①②口 |----|
口①②口 |②---|
口口口口 |----|
58
②口口② |①---|
口口口口 |----|
口口口口 |②---|
①口口① |----|
59
口④④口 |①---|
口③③口 |②---|
口②②口 |③---|
口①①口 |④---|
60
①口口口 |①---|
口口口口 |----|
口口口口 |----|
口口口口 |----|
61
口口口① |①---|
口口口口 |----|
口口口口 |----|
口口口口 |----|
62
口口口口 |①---|
口口口口 |----|
口口口口 |----|
①口口口 |----|
63
口口口口 |①---|
口口口口 |----|
口口口口 |----|
口口口① |----|
64
①②③④ |①---|
口口口口 |②---|
口口口口 |③---|
口口口口 |④---|
65
口口口口 |①---|
口①②口 |----|
口①②口 |②---|
口口口口 |----|
66
②口口② |①---|
口口口口 |----|
口口口口 |②---|
①口口① |----|
67
口②②口 |①---|
口口口口 |----|
口口口口 |②---|
口①①口 |----|
68
①口口④ |①---|
口②③口 |②---|
口口口口 |③---|
口口口口 |④---|
69
口②③口 |①---|
①口口④ |②---|
口口口口 |③---|
口口口口 |④---|
70
口口口口 |①---|
口口口口 |②---|
①口口④ |③---|
口②③口 |④---|
71
口口口口 |①---|
口口口口 |②---|
口②③口 |③---|
①口口④ |④---|
72
①口口④ |①---|
口②③口 |②---|
口口口口 |③---|
口口口口 |④---|
73
口②③口 |①---|
①口口④ |②---|
口口口口 |③---|
口口口口 |④---|
74
②口口② |①---|
口口口口 |----|
口口口口 |②---|
①口口① |----|
75
口②②口 |①---|
口口口口 |----|
口口口口 |②---|
口①①口 |----|
76
口口口口 |①---|
①口口② |--②-|
①口口② |----|
口口③口 |③---|
77
口口口口 |①---|
口④②口 |②---|
口①③口 |③---|
口口口口 |④---|
78
口口口口 |①---|
④口口② |②---|
①口口③ |③---|
口口口口 |④---|
79
口④②口 |①---|
口口口口 |②---|
口口口口 |③---|
口①③口 |④---|
80
④口口② |①---|
口口口口 |②---|
口口口口 |③---|
①口口③ |④---|
81
口口口口 |①---|
口④②口 |②---|
口①③口 |③---|
口口口口 |④---|
82
口口口口 |①---|
④口口② |②---|
①口口③ |③---|
口口口口 |④---|
83
口④②口 |①---|
口口口口 |②---|
口口口口 |③---|
口①③口 |④---|
84
④口口② |①---|
口口口口 |②---|
口口口口 |③---|
①口口③ |④---|
85
口口口口 |①---|
④②②④ |②---|
③①①③ |③---|
口口口口 |④---|
86
口口口口 |①---|
口②②口 |②---|
③①①③ |③---|
口口口口 |----|
87
口口口口 |①---|
④②②④ |②---|
③①①③ |③---|
口口口口 |④---|
88
口口口口 |①---|
口②②口 |②---|
③①①③ |③---|
口口口口 |----|

不確定度: 0

最終更新:2014年08月02日 00:32