恋する☆宇宙戦争っ!!
Prim

BASIC

Level: 5
BPM: 200
Notes: 439

1
口口口口 |----|
口口口口 |----|
口口口口 |----|
口口口口 |----|
2
④口口口 |①---|
③口口口 |②---|
②口口口 |③---|
①口口口 |④---|
3
④③②① |①---|
口口口口 |②---|
口口口口 |③---|
口口口口 |④---|
4
口口口口 |①---|
④③②① |②---|
口口口口 |③---|
口口口口 |④---|
5
口口口口 |①---|
口口口口 |----|
口③③① |②---|
口②②口 |③---|
6
口口口口 |①---|
口①①口 |----|
口口口口 |----|
口口口口 |----|
7
口口口口 |①---|
④③②① |②---|
口口口口 |③---|
口口口口 |④---|
8
口口口口 |①---|
口口口口 |②---|
④③②① |③---|
口口口口 |④---|
9
口口口口 |①---|
口②②口 |--②-|
口口口口 |----|
口①①口 |----|
10
口②②口 |①---|
口口口口 |--②-|
口①①口 |----|
口口口口 |----|
11
①②③④ |①---|
口口口口 |②---|
口口口口 |③---|
口口口口 |④---|
12
口口口口 |①---|
①②③④ |②---|
口口口口 |③---|
口口口口 |④---|
13
口口口口 |①---|
口口口口 |②---|
④③口口 |③---|
口口②① |④---|
14
③口口口 |①---|
口口②① |②---|
口口口口 |③---|
口口口口 |----|
15
口口口口 |①---|
①②③④ |②---|
口口口口 |③---|
口口口口 |④---|
16
口口口口 |①---|
口口口口 |②---|
①②③④ |③---|
口口口口 |④---|
17
口口口口 |①---|
口②②口 |--②-|
③口口③ |----|
口①①口 |③---|
18
口①①口 |--①-|
口③③口 |----|
口②②口 |②---|
口口口口 |③---|
19
口口口口 |①---|
口口口口 |②---|
④口口③ |③---|
②口口① |④---|
20
口④②口 |①-②-|
口③①口 |③-④-|
口⑤⑤口 |----|
口口口口 |⑤---|
21
口口口口 |①---|
口口口口 |②---|
③口口④ |③---|
①口口② |④---|
22
口②④口 |①-②-|
口①③口 |③-④-|
口⑤⑤口 |----|
口口口口 |⑤---|
23
②口口① |①---|
④口口③ |②---|
口口口口 |③---|
口口口口 |④---|
24
口口口口 |①---|
口①②口 |--②-|
口①②口 |----|
口口口口 |----|
25
口口口口 |①---|
口口口口 |②---|
④口口③ |③---|
②口口① |④---|
26
口口口口 |①---|
口①②口 |----|
口②①口 |②---|
口口口口 |----|
27
④口口口 |①---|
③口口口 |②---|
②口口口 |③---|
①口口口 |④---|
28
口④③口 |①-②-|
口②①口 |③-④-|
口⑤⑤口 |----|
口口口口 |⑤---|
29
口口口④ |①---|
口口口③ |②---|
口口口② |③---|
口口口① |④---|
30
口③④口 |①-②-|
口①②口 |③-④-|
口⑤⑤口 |----|
口口口口 |⑤---|
31
口口口口 |①---|
④③②① |②---|
口口口口 |③---|
口口口口 |④---|
32
②②①① |①---|
口口口口 |----|
口口口口 |②---|
口口口口 |----|
33
口口口① |①---|
口口②口 |②---|
口③口口 |③---|
④口口口 |④---|
34
①口口口 |①---|
口②口口 |②---|
口口③口 |③---|
口口口④ |④---|
35
口口口口 |①---|
口口②口 |----|
口①口口 |②---|
口口口口 |----|
36
口口口口 |①---|
口②口口 |----|
口口①口 |②---|
口口口口 |----|
37
口口口② |①---|
口口口口 |----|
口口口口 |②---|
①口口口 |----|
38
②口口口 |①---|
口口口口 |----|
口口口口 |②---|
口口口① |----|
39
口口口口 |①---|
口④②口 |②---|
口①③口 |③---|
口口口口 |④---|
40
④口口② |①---|
口口口口 |②---|
口口口口 |③---|
①口口③ |④---|
41
口④④口 |①---|
③口口③ |②---|
②口口② |③---|
口①①口 |④---|
42
④口口④ |①---|
口③③口 |②---|
口②②口 |③---|
①口口① |④---|
43
口③②口 |①---|
④口口① |②---|
口口口口 |③---|
口口口口 |④---|
44
口口口口 |①---|
口口口口 |②---|
④口口① |③---|
口③②口 |④---|
45
口口口口 |①---|
①口③口 |②---|
口②④口 |③---|
口口口口 |④---|
46
口口口口 |①---|
①口口② |②---|
①③口② |----|
口口口口 |③---|
47
④口口① |①---|
口③②口 |②---|
口口口口 |③---|
口口口口 |④---|
48
口口口口 |①---|
口口口口 |②---|
口③②口 |③---|
④口口① |④---|
49
口口口口 |①---|
口口口口 |②---|
④口③③ |③---|
口②①① |④---|
50
④口③③ |①---|
口②①① |②---|
口口口口 |③---|
口口口口 |④---|
51
口口口口 |①---|
④③②① |②---|
口口口口 |③---|
口口口口 |④---|
52
口口口口 |①---|
口口口口 |②---|
④口口口 |③---|
口③②① |④---|
53
口口口口 |①---|
①口③口 |②---|
口②④口 |③---|
口口口口 |④---|
54
口口口口 |①---|
①口口② |②---|
①③口② |----|
口口口口 |③---|
55
④③②① |①---|
口口口口 |②---|
口口口口 |③---|
口口口口 |④---|
56
口口口口 |①---|
口口口口 |②---|
④③②① |③---|
口口口口 |④---|
57
②口①① |①---|
④口③③ |②---|
口口口口 |③---|
口口口口 |④---|
58
口口口口 |①---|
口口口口 |②---|
②②①① |③---|
④④③③ |④---|
59
④③②① |①---|
口口口口 |②---|
口口口口 |③---|
口口口口 |④---|
60
口口口口 |①---|
④③②① |②---|
口口口口 |③---|
口口口口 |④---|
61
口口口口 |①---|
口口口口 |②---|
④③②① |③---|
口口口口 |④---|
62
口口口口 |①---|
口口口口 |②---|
口口口口 |③---|
④③②① |④---|
63
口口口口 |①---|
口口口口 |②---|
①②③④ |③---|
口口口口 |④---|
64
口口口口 |①---|
①②③④ |②---|
口口口口 |③---|
口口口口 |④---|
65
①①②② |①---|
③口口口 |--②-|
③口口口 |----|
口口口口 |③---|
66
③③③③ |--①-|
口口口① |----|
口②②① |②---|
口口口口 |③---|
67
口口口口 |①---|
口口②口 |----|
口口口口 |②---|
①口口口 |----|
68
口口口口 |①---|
口口口② |----|
口口口口 |②---|
口①口口 |----|
69
口口口口 |①---|
口②口口 |----|
口口口口 |②---|
口口口① |----|
70
口口口口 |①---|
②口口口 |----|
口口口口 |②---|
口口①口 |----|
71
口口②口 |①---|
口口口口 |----|
①口口口 |②---|
口口口口 |----|
72
口口口② |①---|
口口口口 |----|
口①口口 |②---|
口口口口 |----|
73
口口口口 |①---|
口口口口 |②---|
口④③口 |③---|
口②①口 |④---|
74
口口口口 |①---|
口口口口 |②---|
④口口③ |③---|
②口口① |④---|
75
口④③口 |①---|
口②①口 |②---|
口口口口 |③---|
口口口口 |④---|
76
④口口③ |①---|
②口口① |②---|
口口口口 |③---|
口口口口 |④---|
77
口口口口 |①---|
口口口口 |②---|
口④③③ |③---|
②口①① |④---|
78
④④③③ |①---|
②②①① |②---|
口口口口 |③---|
口口口口 |④---|
79
口口口口 |①---|
口③②口 |②---|
④口口① |③---|
口口口口 |④---|
80
口口口口 |①---|
口口口口 |②---|
④口口① |③---|
口③②口 |④---|
81
口口口口 |①---|
①口③口 |②---|
口②④口 |③---|
口口口口 |④---|
82
口口口口 |①---|
①口口② |②---|
①口③② |----|
口口口口 |③---|
83
①②③④ |①---|
口口口口 |②---|
口口口口 |③---|
口口口口 |④---|
84
口口口口 |①---|
口口口口 |②---|
①②③④ |③---|
口口口口 |④---|
85
口口口口 |①---|
口口口口 |②---|
③③④口 |③---|
①①口② |④---|
86
③③④口 |①---|
①①口② |②---|
口口口口 |③---|
口口口口 |④---|
87
口口口口 |①---|
①②③④ |②---|
口口口口 |③---|
口口口口 |④---|
88
口口口口 |①---|
口口口口 |②---|
口口口④ |③---|
①②③口 |④---|
89
口口口口 |①---|
口③口① |②---|
口④②口 |③---|
口口口口 |④---|
90
口口口口 |①---|
②口口① |②---|
②口③① |----|
口口口口 |③---|
91
①②③④ |①---|
口口口口 |②---|
口口口口 |③---|
口口口口 |④---|
92
口口口口 |①---|
口口口口 |②---|
①②③④ |③---|
口口口口 |④---|
93
①②口口 |①---|
口口③④ |②---|
口口口口 |③---|
口口口口 |④---|
94
口口口口 |①---|
口口口口 |②---|
①②口口 |③---|
口口③④ |④---|
95
④③②① |①---|
口口口口 |②---|
口口口口 |③---|
口口口口 |④---|
96
口口口口 |①---|
④③②① |②---|
口口口口 |③---|
口口口口 |④---|
97
口口口口 |①---|
口口口口 |②---|
口口③④ |③---|
①②口口 |④---|
98
口口口③ |①---|
①②口口 |②---|
口口口口 |③---|
口口口口 |----|
99
口口口口 |①---|
④③②① |②---|
口口口口 |③---|
口口口口 |④---|
100
口口口口 |①---|
口口口口 |②---|
④③②① |③---|
口口口口 |④---|
101
口口口口 |①-②-|
口⑥⑤口 |--③-|
口④③口 |④---|
口②①口 |⑤-⑥-|
102
口②①口 |--①-|
口口口口 |②---|
口④④口 |③---|
口③③口 |④---|
103
口口口口 |①---|
①①①① |----|
口口口口 |----|
口口口口 |----|

不確定度: 0

最終更新:2014年08月02日 00:30