星屑のキロク
小野秀幸

BASIC

Level: 4
BPM: 182
Notes: 294

1
口口口口 |----|
口口口口 |----|
口口口口 |----|
口口口口 |----|
2
口口口口 |①---|
口口口口 |----|
口①①口 |----|
口口口口 |----|
3
口②②口 |①---|
口口口口 |--②-|
口①①口 |----|
口口口口 |----|
4
口③③口 |--①-|
口口口口 |②---|
口②②口 |----|
口①①口 |③---|
5
口口口口 |----|
口口口口 |----|
口①①口 |----|
口口口口 |①---|
6
口①①口 |--①-|
口口口口 |----|
口口口口 |----|
口②②口 |--②-|
7
口②②口 |①---|
口口口口 |----|
口①①口 |②---|
口口口口 |----|
8
口口口口 |----|
口①①口 |----|
口口口口 |①---|
口②②口 |--②-|
9
口口口口 |----|
口口口口 |----|
口①①口 |--①-|
口②②口 |②---|
10
口口口口 |----|
口①①口 |①---|
口口口口 |----|
口口口口 |----|
11
口口口口 |----|
口②②口 |①---|
口口口口 |--②-|
口①①口 |----|
12
口口口口 |----|
口②②口 |--①-|
口①①口 |②---|
口口口口 |----|
13
口口口口 |①---|
口口口口 |----|
①②口口 |②---|
口口口口 |----|
14
口口口口 |①---|
口口口口 |----|
口口①② |②---|
口口口口 |----|
15
口口口口 |①---|
口口口口 |----|
口口口口 |②---|
①②口口 |----|
16
口口口口 |①---|
口口口口 |----|
口口口口 |②---|
口口①② |----|
17
口口口口 |①---|
①②口口 |②---|
口口④③ |③---|
口口口口 |④---|
18
口口口口 |①---|
口口④③ |②---|
①②口口 |③---|
口口口口 |④---|
19
口口口口 |①---|
①②口口 |②---|
口口④③ |③---|
口口口口 |④---|
20
口口口口 |①---|
口口④③ |②---|
①②口口 |③---|
口口口口 |④---|
21
口口口口 |①---|
口口口口 |----|
口口口口 |----|
口①①口 |----|
22
口口口口 |①---|
口①①口 |----|
口②②口 |②---|
口口口口 |----|
23
口口口口 |①---|
口口口口 |----|
口口口口 |----|
口①①口 |----|
24
口口口口 |----|
口口口口 |①---|
口③②① |②---|
口口口口 |③---|
25
口口口口 |①---|
口口口口 |----|
①口口口 |----|
口口口口 |----|
26
口口口口 |①---|
口①①口 |----|
口②②口 |②---|
口口口口 |----|
27
口口口口 |①---|
口口口口 |----|
口口口口 |②---|
②①①② |----|
28
口口口口 |①---|
②口口② |----|
①口口① |②---|
口口口口 |----|
29
①口口① |①---|
口口口口 |----|
口口口口 |----|
口口口口 |----|
30
口口口口 |①---|
①口②口 |②---|
③口④口 |③---|
口口口口 |④---|
31
口口口口 |①---|
②口口口 |----|
口口口口 |②---|
口①①口 |----|
32
口口口口 |①---|
口①②口 |----|
口口口口 |②---|
口口口口 |----|
33
口口口口 |①---|
口口口口 |----|
①口口① |----|
口口口口 |----|
34
口口口口 |①---|
①口②口 |②---|
③口④口 |③---|
口口口口 |④---|
35
口口口口 |①---|
口口口口 |----|
②口口② |②---|
口①①口 |----|
36
②口口② |①---|
①口口① |----|
口口口口 |②---|
口口口口 |----|
37
口①口口 |①---|
②口口口 |----|
口口口口 |②---|
口口口口 |----|
38
口口口口 |①---|
口口口口 |----|
口①口口 |②---|
②口口口 |----|
39
①①口口 |①---|
口口口口 |----|
口②②口 |②---|
口口口口 |----|
40
口口①① |①---|
口口口口 |----|
口口口口 |②---|
口②②口 |----|
41
口口口① |①---|
口口②口 |----|
口口口口 |②---|
口口口口 |----|
42
口口口口 |①---|
口口口口 |----|
口口口① |②---|
口口②口 |----|
43
口口①① |①---|
口口口口 |----|
口②②口 |②---|
口口口口 |----|
44
①①口口 |①---|
口口口口 |----|
口口口口 |②---|
口②②口 |----|
45
口口口口 |①---|
口口口口 |----|
①口口① |----|
口口口口 |----|
46
口口口口 |----|
口①①口 |----|
口①①口 |①---|
口口口口 |----|
47
口口口口 |①---|
①口口口 |----|
口②口口 |----|
口口口口 |②---|
48
口④口口 |①---|
口②③口 |②---|
口口①口 |③---|
口口口口 |④---|
49
口口口口 |①---|
口口口口 |----|
口①①口 |②---|
口②②口 |----|
50
口口口口 |----|
口口口口 |----|
口①②口 |①---|
口口口口 |②---|
51
口口口口 |①---|
口口口口 |----|
口②口① |----|
口口口口 |②---|
52
口④口口 |①---|
口②③口 |②---|
口口①口 |③---|
口口口口 |④---|
53
口口口口 |①---|
口口口口 |----|
口①①口 |②---|
口②②口 |----|
54
口口口口 |①---|
口口②口 |----|
①口口① |----|
口口口口 |②---|
55
口口口口 |①---|
口口口口 |②---|
①③②口 |③---|
口⑤④口 |④-⑤-|
56
口口口口 |①---|
口②③① |②---|
口④⑤口 |③---|
口口口口 |④-⑤-|
57
口口口口 |①---|
口口口口 |②---|
口④⑤口 |③---|
①③②口 |④-⑤-|
58
③④④③ |①---|
口①口② |②---|
口口口口 |③---|
口口口口 |④---|
59
口④⑤口 |①---|
②口③口 |②---|
口①①口 |③---|
口口口口 |④-⑤-|
60
口口口口 |①---|
③③口口 |②---|
口口①① |③---|
②②④④ |④---|
61
①口口① |--①-|
⑤③③⑤ |②---|
②口口② |③-④-|
口④④口 |--⑤-|
62
口③③口 |①---|
口口口口 |----|
口②②口 |②---|
①口口① |③---|
63
①口口① |--①-|
⑤③③⑤ |②---|
②口口② |③-④-|
口④④口 |--⑤-|
64
口③③口 |①---|
口口口口 |----|
口②②口 |②---|
①口口① |③---|
65
口口口口 |①---|
口①①口 |----|
口口口口 |----|
口口口口 |----|
66
①口口① |①---|
口口口口 |----|
口口口口 |----|
口口口口 |----|
67
口口口口 |①---|
口口口口 |----|
口①①口 |----|
口口口口 |----|
68
口②②口 |①---|
口口口口 |--②-|
①口口① |----|
口口口口 |----|
69
口③③口 |--①-|
口口口口 |②---|
口②②口 |----|
口①①口 |③---|
70
口口口口 |----|
口口口口 |----|
①口口① |----|
口口口口 |①---|
71
口①①口 |--①-|
口口口口 |----|
口口口口 |----|
口②②口 |--②-|
72
口②②口 |①---|
口口口口 |----|
③①①口 |②---|
口口口口 |③---|
73
口口口口 |①---|
③口口③ |②---|
口①②口 |③---|
口④④口 |--④-|
74
①②口口 |--①-|
口口口口 |--②-|
口③③口 |--③-|
口④④口 |④---|
75
口口①② |①-②-|
③口口③ |③---|
④⑤口口 |④---|
口口口口 |⑤---|
76
④口口口 |①---|
口③③口 |②---|
口口①口 |--③-|
口②②口 |--④-|
77
口①④口 |--①-|
口③③口 |--②-|
口②②口 |③---|
口口口口 |④---|
78
口口口口 |----|
口口口口 |----|
口口口口 |----|
口①①口 |①---|

不確定度: 0

最終更新:2014年08月02日 00:29