星屑のキロク
小野秀幸

ADVANCED

Level: 7
BPM: 182
Notes: 543

1
口口口口 |----|
口口口口 |----|
口口口口 |----|
口口口口 |----|
2
口口④① |①---|
口③口口 |②---|
口口②口 |③---|
①口口口 |④---|
3
①②⑥④ |①-②-|
口口③口 |③-④-|
口⑤口口 |--⑤-|
④口口① |--⑥-|
4
⑤口口② |--①-|
②口口① |②---|
①③口口 |③-④-|
口口④⑤ |⑤---|
5
口①⑤④ |①---|
口口②口 |②---|
口③口口 |③---|
④口口口 |④-⑤-|
6
①口口口 |--①-|
口口③口 |--②-|
④②口④ |--③-|
口口口① |--④-|
7
口②③口 |①---|
①口口① |②-③-|
口④⑤口 |④-⑤-|
口⑥⑦口 |⑥-⑦-|
8
口③②口 |--①-|
①⑤④⑥ |②-③-|
口⑦口口 |④-⑤-|
口口口口 |⑥-⑦-|
9
口⑥⑤口 |①-②-|
④口⑦口 |③---|
口口①口 |④-⑤-|
口②③口 |⑥-⑦-|
10
口口口口 |①-②-|
⑦①口② |③-④-|
口③④口 |⑤-⑥-|
口⑤⑥口 |--⑦-|
11
口②①口 |①-②-|
口④③⑤ |③-④-|
口⑥⑦口 |⑤-⑥-|
口⑧口口 |⑦-⑧-|
12
口④③口 |①---|
②⑥⑤⑦ |②-③-|
口口口口 |④-⑤-|
口口①口 |⑥-⑦-|
13
口⑦口⑧ |①-②-|
⑤口⑥口 |③-④-|
口③口④ |⑤-⑥-|
①口②口 |⑦-⑧-|
14
①口②口 |①-②-|
口③口④ |③-④-|
⑤口⑥口 |⑤-⑥-|
口⑦口⑧ |⑦-⑧-|
15
口⑦口⑧ |①-②-|
⑤口⑥口 |③-④-|
口③口④ |⑤-⑥-|
①口②口 |⑦-⑧-|
16
①口②口 |①-②-|
口③口④ |③-④-|
⑤口⑥口 |⑤-⑥-|
口⑦口⑧ |⑦-⑧-|
17
口⑤口⑥ |①-②-|
③③口④ |③-④-|
⑦⑦口⑧ |⑤-⑥-|
①口②口 |⑦-⑧-|
18
口⑤口⑥ |①-②-|
③③口④ |③-④-|
⑦⑦口⑧ |⑤-⑥-|
①口②口 |⑦-⑧-|
19
口⑤口⑥ |①-②-|
③③口④ |③-④-|
⑦⑦口⑧ |⑤-⑥-|
①口②口 |⑦-⑧-|
20
①⑤②⑥ |①-②-|
③③口④ |③-④-|
⑦⑦口⑧ |⑤-⑥-|
口口口口 |⑦-⑧-|
21
口口口口 |①---|
口口口口 |----|
口口口口 |----|
口①①口 |----|
22
①②口③ |①-②-|
口④口⑤ |--③-|
口口口口 |--④-|
口口口口 |--⑤-|
23
②③口口 |①---|
口口①口 |②-③-|
口口口口 |----|
口口口口 |----|
24
口口口口 |----|
口口口口 |①---|
①口③口 |②---|
口②口口 |③---|
25
口口口口 |①---|
口口口口 |----|
口口口口 |----|
口口口① |----|
26
①②口③ |①-②-|
口④口⑤ |--③-|
口口口口 |--④-|
口口口口 |--⑤-|
27
口口口口 |①---|
口③③口 |--②-|
口②②口 |----|
口①①口 |③---|
28
②①①② |--①-|
口口口口 |----|
口口口口 |②---|
口口口口 |----|
29
口口口口 |①---|
口口口口 |②---|
①②口① |③---|
口④③口 |④---|
30
口口口口 |①-②-|
口①②④ |③-④-|
口③口①
口口口口

口口口口
⑥⑧口口
口口⑤口 |⑤-⑥-|
口口⑦口 |⑦-⑧-|
31
③①①② |①---|
口口口口 |②-③-|
口⑤④口 |④---|
口口口口 |⑤---|
32
口口口口 |①---|
口②①口 |②---|
口口口口 |③---|
口④③口 |④---|
33
口口口口 |①---|
口口口口 |②---|
①②口① |③---|
口④③口 |④---|
34
口口口口 |①-②-|
口①②④ |③-④-|
口③口①
口口口口

口口口口
⑥⑧口口
口口⑤口 |⑤-⑥-|
口口⑦口 |⑦-⑧-|
35
②口口① |①---|
口口口③ |--②-|
①口口② |----|
③口口口 |③---|
36
口口口口 |--①-|
①口口口 |----|
口③③口 |②-③-|
口②②① |----|
37
①①口口 |①---|
口口口口 |----|
②②口口 |--②-|
口口口口 |----|
38
口口⑤③ |①---|
口口②口 |②-③-|
口口口④ |--④-|
口口口① |--⑤-|
39
口口口口 |--①-|
①②③口 |②-③-|
⑦⑥⑤④ |④-⑤-|
口口口口 |⑥-⑦-|
40
口口口口 |①-②-|
口口口口 |③-④-|
⑧⑦⑥⑤ |⑤-⑥-|
①②③④ |⑦-⑧-|
41
口口口口 |①---|
口口①① |----|
口口口口 |--②-|
口口②② |----|
42
⑤⑤口口 |①---|
②口口口 |②-③-|
口③口口 |--④-|
④①口口 |--⑤-|
43
口口口口 |--①-|
口口口口 |②-③-|
口③②① |④-⑤-|
④⑤⑥⑦ |⑥-⑦-|
44
①①口口 |①-②-|
⑤⑥⑦⑧ |③-④-|
口④③② |⑤-⑥-|
口口口口 |⑦-⑧-|
45
口口①① |①-②-|
口口口口 |③-④-|
⑧⑦⑥⑤ |⑤-⑥-|
②③④口 |⑦-⑧-|
46
口口口口 |①-②-|
①②③④ |③-④-|
口⑥⑥口 |⑤-⑥-|
口⑤⑤口 |----|
47
①口口① |①---|
③口口口 |----|
③口口② |----|
口口口② |②-③-|
48
口口③① |--①-|
口口③① |--②-|
口②④④ |--③-|
口②口口 |--④-|
49
口口口口 |--①-|
①①口口 |--②-|
口口口口 |----|
②口口② |----|
50
①③口口 |----|
口口④② |----|
①③口口 |①-②-|
口口口口 |③-④-|
51
口口口① |①---|
①口口口 |----|
口口口口
口口口口

口口口③
口口③口
口②口口 |----|
②口口口 |②-③-|
52
④②③④ |--①-|
②口口③ |--②-|
口口口口 |--③-|
口①①口 |--④-|
53
口口口口 |----|
口口口口 |--①-|
口①①口 |----|
口口口口 |----|
54
口口①口 |①---|
口口口口 |----|
②口口② |----|
口口口口 |②---|
55
口④⑤口 |①-②-|
⑧⑥③③ |③-④-|
口②①口 |⑤-⑥-|
口口⑦⑦ |⑦-⑧-|
56
口④⑤口 |①-②-|
⑧⑥③③ |③-④-|
口②①口 |⑤-⑥-|
口口⑦⑦ |⑦-⑧-|
57
口⑥⑤口 |①-②-|
⑧口③③ |③-④-|
④②①口 |⑤-⑥-|
口口⑦⑦ |⑦-⑧-|
58
口⑥⑤口 |①-②-|
⑧口③③ |③-④-|
④②①口 |⑤-⑥-|
口口⑦⑦ |⑦-⑧-|
59
⑤⑥⑤口 |①-②-|
⑧口③③ |③-④-|
④②①口 |⑤-⑥-|
①口⑦⑦ |⑦-⑧-|
60
口口口口 |①-②-|
口④③③ |③-④-|
口②①口
①口口口

口口口口
口口口口
⑤口口⑤ |⑤-⑥-|
⑧⑥⑦口 |⑦-⑧-|
61
③①③① |--①-|
④②④② |②---|
口⑤口⑤ |③-④-|
口口口口 |--⑤-|
62
口口②口 |①---|
③口口口 |----|
口口口③ |②---|
②①口① |③---|
63
③①③① |--①-|
④②④② |②---|
口⑤口⑤ |③-④-|
口口口口 |--⑤-|
64
口③口② |①---|
口口口口 |----|
口口口口 |②---|
②①③① |③---|
65
口口口口 |①---|
①口口① |----|
①口口① |----|
口口口口 |----|
66
口口口口 |①---|
①口口① |----|
口①①口 |----|
口口口口 |----|
67
口⑦④口 |①-②-|
⑥③口口 |③-④-|
②⑤口口 |--⑤-|
口口①① |⑥-⑦-|
68
口口⑦口 |①-②-|
口⑥口口 |③-④-|
⑤口④④ |⑤-⑥-|
②③①① |⑦---|
69
⑥⑤口口 |①-②-|
④口②② |③-④-|
⑧①③③ |⑤-⑥-|
口口⑦⑦ |⑦-⑧-|
70
口⑤②口 |①-②-|
④①口口 |--③-|
口③口口 |④-⑤-|
⑦口⑥⑥ |⑥-⑦-|
71
口口⑤口 |①-②-|
口④⑦⑦ |③-④-|
③⑥②② |⑤---|
口①口口 |⑥-⑦-|
72
④③⑧口 |①-②-|
②⑦口口 |③-④-|
⑥口①① |⑤-⑥-|
口口⑤⑤ |⑦-⑧-|
73
口③口口 |--①-|
②口口口 |②-③-|
口①⑦⑦ |④-⑤-|
⑤⑥④④ |⑥-⑦-|
74
口口③口 |①-②-|
⑦②⑤⑤ |③---|
①④⑥⑥ |④-⑤-|
口口口口 |⑥-⑦-|
75
②①⑥口 |①-②-|
口⑤口口 |③-④-|
④⑦口口 |⑤-⑥-|
口口③③ |--⑦-|
76
口②口口 |①-②-|
①⑧口口 |③-④-|
⑦口⑥⑥ |⑤-⑥-|
④⑤③③ |⑦-⑧-|
77
⑦⑥①口 |①---|
⑤口③③ |②-③-|
口②④④ |④-⑤-|
口口口口 |⑥-⑦-|
78
口口口口 |----|
口口口口 |----|
口①①口 |----|
口口口口 |①---|

不確定度: 0

最終更新:2014年08月02日 00:28