Dispersion Star
ZUKI

BASIC

Level: 2
BPM: 180
Notes: 137

1
口口口口 |----|
口口口口 |----|
口口口口 |----|
口口口口 |----|
2
口口口口 |①---|
口①①口 |----|
口口口口 |----|
口口口口 |----|
3
口口口口 |----|
口口口口 |----|
口口口口 |----|
口口口口 |----|
4
口口口口 |----|
口口口口 |----|
口口口口 |----|
口口口口 |----|
5
口口口口 |----|
口口口口 |----|
口口口口 |----|
口口口口 |----|
6
口口口口 |①---|
口口②口 |----|
口口①口 |②---|
口口口口 |----|
7
口口①口 |①---|
口口口口 |----|
口口口口 |----|
口口口口 |----|
8
口口口口 |①---|
①②口口 |----|
口口口口 |②---|
口口口口 |----|
9
口口口口 |①---|
口口①口 |----|
口口口口 |----|
口口口口 |----|
10
口口口口 |①---|
口②口口 |----|
口①口口 |②---|
口口口口 |----|
11
口①口口 |①---|
口口口口 |----|
口口口口 |----|
口口口口 |----|
12
口口口口 |①---|
口口②① |----|
口口口口 |②---|
口口口口 |----|
13
口口口口 |①---|
口①口口 |----|
口②②口 |②---|
口口口口 |----|
14
口口口口 |----|
口口口口 |----|
口口口口 |----|
口口口口 |----|
15
口口口口 |①---|
口口口口 |----|
口口口口 |②---|
口②①口 |----|
16
口口口口 |①---|
口口口口 |----|
口②①口 |②---|
口口口口 |----|
17
口口口口 |①---|
①口口① |----|
口口口口 |----|
口口口口 |----|
18
口口口口 |①---|
口口口口 |----|
①口口① |----|
口口口口 |----|
19
口口口口 |①---|
口口口口 |----|
口口口口 |②---|
口①②口 |----|
20
口口口口 |①---|
口口口口 |----|
口①②口 |②---|
口口口口 |----|
21
口口口口 |①---|
①①②② |----|
口口口口 |----|
口口口口 |②---|
22
口①①口 |----|
口口口口 |----|
口口口口 |①---|
口口口口 |----|
23
口口口口 |①---|
口口口口 |----|
①②口口 |②---|
口口口口 |----|
24
口口口口 |①---|
口口口口 |----|
口口①② |②---|
口口口口 |----|
25
①口口① |①---|
口口口口 |----|
口口口口 |----|
口口口口 |----|
26
口口口口 |①---|
①口口① |----|
口口口口 |----|
口口口口 |----|
27
口口口口 |①---|
口口口口 |----|
口口②① |②---|
口口口口 |----|
28
口口口口 |①---|
口口口口 |----|
②①口口 |②---|
口口口口 |----|
29
口②①口 |①---|
口②①口 |----|
口口口口 |----|
口口口口 |②---|
30
口口口口 |----|
口口口口 |----|
①口口① |①---|
口口口口 |----|
31
口口口口 |----|
口口口口 |----|
口口口口 |----|
口口口口 |----|
32
口口口口 |①---|
口口口口 |----|
口①②口 |②---|
口口口口 |----|
33
口口口① |①---|
口口口② |--②-|
口口口③ |----|
口口口口 |③---|
34
口口口口 |----|
口口口口 |----|
口口口口 |----|
口口口口 |----|
35
口口口口 |①---|
口口口口 |----|
口①①口 |----|
口口口口 |----|
36
口口口口 |①---|
口口口口 |----|
口②①口 |②---|
口口口口 |----|
37
①口口口 |①---|
②口口口 |--②-|
③口口口 |----|
口口口口 |③---|
38
口口口口 |----|
口口口口 |----|
口口口口 |----|
口口口口 |----|
39
口口①口 |①---|
口口②口 |②---|
口口③口 |③---|
口口④口 |④---|
40
口④口口 |①---|
口③口口 |②---|
口②口口 |③---|
口①口口 |④---|
41
①口口① |①---|
②口口② |--②-|
③口口③ |----|
口口口口 |③---|
42
口口口口 |----|
口口口口 |----|
口口口口 |----|
口口口口 |----|
43
口①口口 |①---|
口②口口 |②---|
口③口口 |③---|
口④口口 |④---|
44
口口④口 |①---|
口口③口 |②---|
口口②口 |③---|
口口①口 |④---|
45
①口口① |①---|
口②②口 |--②-|
③口口③ |----|
口口口口 |③---|
46
口口口口 |--①-|
口②②口 |----|
口口口口 |②---|
口①①口 |----|
47
口口口口 |----|
口口口口 |----|
口口口口 |----|
口口口口 |----|
48
口口口口 |①---|
口口②口 |----|
口口①口 |②---|
口口口口 |----|
49
口口①口 |①---|
口口口口 |----|
口口口口 |----|
口口口口 |----|
50
口口口① |①---|
口口②口 |----|
口口口口 |②---|
口口口口 |----|
51
口口口口 |①---|
口口口口 |----|
口①口口 |----|
口口口口 |----|
52
口口口口 |①---|
口②口口 |----|
口①口口 |②---|
口口口口 |----|
53
口①口口 |①---|
口口口口 |----|
口口口口 |----|
口口口口 |----|
54
①口口口 |①---|
口②口口 |----|
口口口口 |②---|
口口口口 |----|
55
口口口口 |①---|
口口口口 |----|
口口①口 |----|
口口口口 |----|
56
口口口口 |①---|
口口②口 |----|
口口①口 |②---|
口口口口 |----|
57
口口①口 |①---|
口口口口 |----|
口口口口 |----|
口口口口 |----|
58
口口口① |①---|
口口②口 |----|
口口口口 |②---|
口口口口 |----|
59
口口口口 |①---|
口口口口 |----|
口①口口 |----|
口口口口 |----|
60
口口口口 |①---|
口②口口 |----|
口①口口 |②---|
口口口口 |----|
61
口①口口 |①---|
口口口口 |----|
口口口口 |----|
口口口口 |----|
62
①口口口 |①---|
口②口口 |----|
口口口口 |②---|
口口口口 |----|
63
口口口口 |①---|
口②②口 |----|
口①①口 |②---|
口口口口 |----|
64
②①①② |①---|
口口口口 |----|
口口口口 |②---|
口口口口 |----|
65
口口口口 |①---|
①口口① |----|
②口口② |②---|
口口口口 |----|
66
口①①口 |①---|
口②②口 |--②-|
口③③口 |----|
口口口口 |③---|

不確定度: 0

最終更新:2014年08月02日 00:28