Condor
Remo-con

BASIC

Level: 3
BPM: 142
Notes: 189

1
口口口口 |----|
口口口口 |----|
口口口口 |----|
口口口口 |----|
2
口口口口 |①---|
口①②口 |----|
口口口口 |②---|
口口口口 |----|
3
口口口口 |①---|
口口口口 |----|
口②①口 |②---|
口口口口 |----|
4
口①口口 |①---|
口口口② |----|
口口口口 |②---|
口口口口 |----|
5
口口口口 |①---|
口口口口 |----|
②口口口 |②---|
口口①口 |----|
6
①口口② |①---|
口口口口 |----|
口口口口 |②---|
口口口口 |----|
7
口口口口 |①---|
口口口口 |----|
口口口口 |②---|
②口口① |----|
8
口口②口 |①---|
①口口口 |----|
口口口口 |②---|
口口口口 |----|
9
口口口口 |①---|
口口口口 |----|
口口口① |②---|
口②口口 |----|
10
口口口口 |①---|
口①①口 |----|
口①①口
口口口口

口口口口
②③口口
口口口口 |--②-|
口口口口 |-③--|
11
口口口口 |①---|
口口①口 |----|
口④③② |--②-|
口口口口 |-③-④|
12
口口口口 |----|
口口口② |--①-|
①口口口 |--②-|
口口口口 |----|
13
口①口口 |①--②|
口口②口 |--③-|
口③口口 |----|
口口口口 |----|
14
口口口口 |①---|
①口口① |----|
①口口① |----|
口口口口 |----|
15
口口口口 |----|
口口口口 |----|
口口口口 |----|
口口口口 |----|
16
口①①口 |①---|
口口口口 |----|
口口口口 |----|
口口口口 |----|
17
口口口口 |----|
口口口口 |----|
口口口口 |----|
口口口口 |----|
18
口口口口 |①---|
口口口口 |----|
口口口口 |----|
口①①口 |----|
19
口口口口 |----|
口口口口 |----|
口口口口 |----|
口口口口 |----|
20
口口口口 |①---|
①口口① |----|
口口口口 |----|
口口口口 |----|
21
口口口口 |----|
口口口口 |----|
口口口口 |----|
口口口口 |----|
22
口口口口 |----|
口①②口 |①---|
口口口口 |②---|
口口口口 |----|
23
口口口④ |----|
①②口③ |①---|
口口口口 |②---|
口口口口 |③-④-|
24
口口口口 |----|
口①①口 |----|
口①①口 |①---|
口口口口 |----|
25
①口口② |--①-|
口口口口 |--②-|
口口口口 |----|
口口口口 |----|
26
口①①口 |①---|
口口口口 |----|
②口口③ |②---|
口口口口 |③---|
27
②口口③ |①---|
口①①口 |----|
口口口口 |②---|
口口口口 |③---|
28
口口口口 |①---|
②口口③ |----|
口①①口 |②---|
口口口口 |③---|
29
②口口③ |-①--|
口口口口 |----|
口口口口 |②---|
口①①口 |③---|
30
口①①口 |①---|
口口口口 |----|
②口口③ |②---|
口口口口 |③---|
31
②口口③ |①---|
口①①口 |----|
口口口口 |②---|
口口口口 |③---|
32
口口口口 |①---|
②口口③ |----|
口①①口 |②---|
口口口口 |③---|
33
②口口③ |-①--|
口口口口 |----|
口口口口 |②---|
口①①口 |③---|
34
口①①口 |①---|
口口口口 |----|
②口口③ |②---|
口口口口 |③---|
35
②口口③ |①---|
口①①口 |----|
口口口口 |②---|
口口口口 |③---|
36
口口口口 |①---|
②口口③ |----|
口①①口 |②---|
口口口口 |③---|
37
①口口② |----|
口口口口 |----|
口口口口 |①---|
口口口口 |②---|
38
口①①口 |①---|
口口口口 |----|
②口口③ |②---|
口口口口 |③---|
39
②口口③ |①---|
口①①口 |----|
口口口口 |②---|
口口口口 |③---|
40
口口口口 |①---|
②口口③ |----|
口①①口 |②---|
口口口口 |③---|
41
口口口口 |①---|
②口口③ |----|
②口口③ |②---|
口①①口 |③---|
42
口①①口 |①---|
口口口口 |----|
②口口③ |②---|
口口口口 |③---|
43
②口口③ |①---|
口①①口 |----|
口口口口 |②---|
口口口口 |③---|
44
口口口口 |①---|
②口口③ |----|
口①①口 |②---|
口口口口 |③---|
45
①口口② |----|
口口口口 |----|
口口口口 |①---|
口口口口 |②---|
46
口①①口 |①---|
口口口口 |----|
②口口③ |②---|
口口口口 |③---|
47
②口口③ |①---|
口①①口 |----|
口口口口 |②---|
口口口口 |③---|
48
口口口口 |①---|
②口口③ |----|
口①①口 |②---|
口口口口 |③---|
49
③口口④ |-①-②|
③口口④ |----|
口口口口 |③---|
①口口② |④---|
50
口①①口 |①---|
口口口口 |----|
③口口③ |--②-|
②口口② |-③--|
51
口口口口 |①---|
①口口① |----|
口口口口
口口口口

口口口口
③口口③
②口口② |--②-|
口口口口 |-③--|
52
①口口① |①---|
口②②口 |--②-|
口口口口 |--③-|
口③③口 |----|
53
①口口① |①---|
口口口口 |----|
口口口口 |----|
口口口口 |----|
54
口口口口 |①---|
①口口① |----|
①口口① |----|
口口口口 |----|
55
口口口口 |①---|
口①①口 |----|
口①①口 |----|
口口口口 |----|
56
口口口口 |①---|
①口口① |----|
①口口① |----|
口口口口 |----|
57
②口口③ |①---|
口口口口 |----|
口口口口 |②---|
口①①口 |③---|
58
口口口口 |①---|
口①①口 |----|
口①①口 |----|
口口口口 |----|

不確定度: 0

最終更新:2014年08月02日 00:22