Red Goose
Mutsuhiko Izumi

BASIC

Level: 6
BPM: 200
Notes: 445

1
①口口口 |----|
口口口口 |----|
口口口口 |----|
口口口口 |①---|
2
口②口① |①---|
口口③口 |----|
口口口口 |②---|
口口口口 |③---|
3
口口口口 |①---|
口③口口 |----|
②口口① |②---|
口口口口 |③---|
4
口口①口 |①---|
口口口② |----|
口口③口 |②---|
口口口口 |③---|
5
口口口口 |①---|
口口口口 |----|
口③口口 |②---|
口①②口 |③---|
6
口②口口 |①---|
①口③口 |----|
口口口口 |②---|
口口口口 |③---|
7
口口口口 |①---|
口口口② |----|
口口③① |②---|
口口口口 |③---|
8
口口③口 |①---|
②口口口 |②---|
口口口④ |③---|
口①口口 |④---|
9
口口口口 |①---|
口①①口 |----|
口口口口 |----|
口口口口 |----|
10
口口口口 |①---|
口口口口 |----|
口①①口 |----|
口口口口 |----|
11
①口②口 |①---|
③口④口 |②---|
口口口口 |③---|
口口口口 |④---|
12
口口口口 |①---|
口口口口 |②---|
口①口② |③---|
口③口④ |④---|
13
口口口④ |①---|
口口口② |②---|
①口口口 |③---|
③口口口 |④---|
14
①口口口 |①---|
③口口口 |②---|
口口口④ |③---|
口口口② |④---|
15
口③②口 |①---|
口④①口 |②---|
口口口口 |③---|
口口口口 |④---|
16
口口口口 |①---|
口口口口 |②---|
口③②口 |③---|
口④①口 |④---|
17
①口口② |①---|
③口口④ |②---|
口口口口 |③---|
口口口口 |④---|
18
口口口口 |①---|
口口口口 |②---|
①口口② |③---|
③口口④ |④---|
19
口口口口 |①---|
口口口口 |②---|
口③④口 |③---|
口①②口 |④---|
20
③③④④ |①---|
①①②② |②---|
口口口口 |③---|
口口口口 |④---|
21
口口口口 |①---|
①口口口 |②---|
口②口口 |③---|
口口③口 |----|
22
口口口口 |①---|
口口口③ |②---|
口口②口 |③---|
口①口口 |----|
23
口③口口 |①---|
口口②口 |②---|
口口口① |③---|
口口口口 |----|
24
口口①口 |①---|
口②口口 |②---|
③口口口 |③---|
口口口口 |----|
25
口口口口 |①---|
口口口① |②---|
口口②口 |③---|
口③口口 |----|
26
口口口口 |①---|
③口口口 |②---|
口②口口 |③---|
口口①口 |----|
27
口口③口 |①---|
口②口口 |②---|
①口口口 |③---|
口口口口 |----|
28
口①口口 |①---|
口口②口 |②---|
口口口③ |③---|
口口口口 |----|
29
口口口口 |①---|
①口口口 |②---|
口②口口 |③---|
口口③口 |----|
30
口口口口 |①---|
口口口③ |②---|
口口②口 |③---|
口①口口 |----|
31
口③口口 |①---|
口口②口 |②---|
口口口① |③---|
口口口口 |----|
32
口口①口 |①---|
口②口口 |②---|
③口口口 |③---|
口口口口 |----|
33
口口口口 |①---|
口口口① |②---|
口口②口 |③---|
口③口口 |----|
34
口口口口 |①---|
③口口口 |②---|
口②口口 |③---|
口口①口 |----|
35
口口③口 |①---|
口②口口 |②---|
①口口口 |③---|
口口口口 |----|
36
口①口口 |①---|
口口②口 |②---|
口口口③ |③---|
口口口口 |----|
37
口口口口 |①---|
口①②口 |②---|
口④③口 |③---|
口口口口 |④---|
38
口①②口 |①---|
口口口口 |②---|
口口口口 |③---|
口④③口 |④---|
39
口口口口 |①---|
口①②口 |②---|
口④③口 |③---|
口口口口 |④---|
40
④口口④ |①---|
③口口③ |②---|
②口口② |③---|
①口口① |④---|
41
口口口口 |①---|
口①②口 |②---|
口④③口 |③---|
口口口口 |④---|
42
口①②口 |①---|
口口口口 |②---|
口口口口 |③---|
口④③口 |④---|
43
④口口④ |①---|
③口口③ |②---|
②口口② |③---|
①口口① |④---|
44
口④④口 |①---|
口③③口 |②---|
口②②口 |③---|
口①①口 |④---|
45
④④④口 |①---|
③③③口 |②---|
②②②口 |③---|
①①①口 |④---|
46
口④④④ |①---|
口③③③ |②---|
口②②② |③---|
口①①① |④---|
47
口口口④ |①---|
口口④口 |②---|
①②口③ |③---|
口口③口 |④---|
48
口口④口 |①---|
①②口④ |②---|
口口③口 |③---|
口口口③ |④---|
49
口口口④ |①---|
口口④口 |②---|
①②口③ |③---|
口口③口 |④---|
50
口口④口 |①---|
①②口④ |②---|
口口③口 |③---|
口口口③ |④---|
51
口口口④ |①---|
口口④口 |②---|
①②口③ |③---|
口口③口 |④---|
52
口口④口 |①---|
①②口④ |②---|
口口③口 |③---|
口口口③ |④---|
53
口口口④ |①---|
口口④口 |②---|
①②口③ |③---|
口口③口 |④---|
54
口口④口 |①---|
①②口④ |②---|
口口③口 |③---|
口口口③ |④---|
55
口口④④ |①---|
口口口口 |②---|
①②口口 |③---|
口②③③ |④---|
56
口②口口 |①---|
①②④④ |②---|
口口③③ |③---|
口口口口 |④---|
57
口口④④ |①---|
口口口口 |②---|
①②口口 |③---|
口②③③ |④---|
58
口②口口 |①---|
①②④④ |②---|
口口③③ |③---|
口口口口 |④---|
59
口口④④ |①---|
口口口口 |②---|
①②口口 |③---|
口②③③ |④---|
60
口②口口 |①---|
①②④④ |②---|
口口③③ |③---|
口口口口 |④---|
61
口口④④ |①---|
口口口口 |②---|
②②口口 |③---|
①①③③ |④---|
62
④④口口 |①---|
口口②② |②---|
口口①① |③---|
③③口口 |④---|
63
口口口口 |①---|
口①②口 |②---|
口④③口 |③---|
口口口口 |④---|
64
口①②口 |①---|
口口口口 |②---|
口口口口 |③---|
口④③口 |④---|
65
口口口口 |①---|
口①②口 |②---|
口④③口 |③---|
口口口口 |④---|
66
④口口④ |①---|
③口口③ |②---|
②口口② |③---|
①口口① |④---|
67
口口口口 |①---|
口①②口 |②---|
口④③口 |③---|
口口口口 |④---|
68
口①②口 |①---|
口口口口 |②---|
口口口口 |③---|
口④③口 |④---|
69
④口口④ |①---|
③口口③ |②---|
②口口② |③---|
①口口① |④---|
70
口④④口 |①---|
口③③口 |②---|
口②②口 |③---|
口①①口 |④---|
71
④④④口 |①---|
③③③口 |②---|
②②②口 |③---|
①①①口 |④---|
72
口④④④ |①---|
口③③③ |②---|
口②②② |③---|
口①①① |④---|
73
口口口口 |①---|
①口口口 |②---|
口②口口 |③---|
口口③口 |----|
74
口口口口 |①---|
口口口③ |②---|
口口②口 |③---|
口①口口 |----|
75
口③口口 |①---|
口口②口 |②---|
口口口① |③---|
口口口口 |----|
76
口口①口 |①---|
口②口口 |②---|
③口口口 |③---|
口口口口 |----|
77
口口口口 |①---|
口口口① |②---|
口口②口 |③---|
口③口口 |----|
78
口口口口 |①---|
③口口口 |②---|
口②口口 |③---|
口口①口 |----|
79
口口③口 |①---|
口②口口 |②---|
①口口口 |③---|
口口口口 |----|
80
口①口口 |①---|
口口②口 |②---|
口口口③ |③---|
口口口口 |----|
81
口口口口 |①---|
①口口口 |②---|
口②口口 |③---|
口口③口 |----|
82
口口口口 |①---|
口口口③ |②---|
口口②口 |③---|
口①口口 |----|
83
口③口口 |①---|
口口②口 |②---|
口口口① |③---|
口口口口 |----|
84
口口①口 |①---|
口②口口 |②---|
③口口口 |③---|
口口口口 |----|
85
口口口口 |①---|
口口口① |②---|
口口②口 |③---|
口③口口 |----|
86
口口口口 |①---|
③口口口 |②---|
口②口口 |③---|
口口①口 |----|
87
口口③口 |①---|
口②口口 |②---|
①口口口 |③---|
口口口口 |----|
88
口①口口 |①---|
口口②口 |②---|
口口口③ |③---|
口口口口 |----|
89
口口口口 |①---|
①口口口 |②---|
口②口口 |③---|
口口③口 |----|
90
口口口口 |①---|
口口口③ |②---|
口口②口 |③---|
口①口口 |----|
91
口③口口 |①---|
口口②口 |②---|
口口口① |③---|
口口口口 |----|
92
口口①口 |①---|
口②口口 |②---|
③口口口 |③---|
口口口口 |----|
93
口口口口 |①---|
口口口① |②---|
口口②口 |③---|
口③口口 |----|
94
口口口口 |①---|
③口口口 |②---|
口②口口 |③---|
口口①口 |----|
95
口口③口 |①---|
口②口口 |②---|
①口口口 |③---|
口口口口 |----|
96
口①口口 |①---|
口口②口 |②---|
口口口③ |③---|
口口口口 |----|
97
口口口口 |①---|
口①②口 |②---|
口④③口 |③---|
口口口口 |④---|
98
①口口② |①---|
口口口口 |②---|
口口口口 |③---|
④口口③ |④---|
99
口口口口 |----|
口①①口 |----|
口①①口 |①---|
口口口口 |----|


不确定度: 0

最終更新:2012年11月08日 18:31