いーあるふぁんくらぶ
みきとP

BASIC

Level: 2
BPM: 145
Notes: 187

1
口口口口 |----|
口口口口 |----|
口口口口 |----|
口口口口 |----|
2
口口口口 |----|
口口口口 |----|
口口口口 |----|
口口口口 |----|
3
口口口口 |①---|
口口口口 |----|
口①口口 |----|
口口口口 |----|
4
口口口口 |①---|
口①口口 |----|
口口口口 |----|
口口口口 |----|
5
口口口口 |①---|
口口①口 |----|
口口口口 |----|
口口口口 |----|
6
口口口口 |①---|
口口口口 |----|
口口①口 |----|
口口口口 |----|
7
口口口口 |①---|
口口①口 |----|
口口②口 |②---|
口口口口 |----|
8
口口口口 |①---|
口②口口 |----|
口①口口 |②---|
口口口口 |----|
9
口口口口 |①---|
口口①口 |----|
口口②口 |②---|
口口口口 |----|
10
口口口口 |①---|
口口口口 |----|
口①②口 |②---|
口口口口 |----|
11
口口口口 |①---|
口①①口 |----|
口口口口 |----|
口口口口 |----|
12
口口口口 |①---|
口口口口 |----|
口口口口 |----|
口①①口 |----|
13
口口口口 |①---|
①②口口 |----|
口口口口 |②---|
口口口口 |----|
14
口口口口 |①---|
口口①② |----|
口口口口 |②---|
口口口口 |----|
15
口口口口 |①---|
口口口口 |----|
口口②① |②---|
口口口口 |----|
16
口口口口 |①---|
口口口口 |----|
②①口口 |②---|
口口口口 |----|
17
①口口口 |①---|
②口口口 |----|
口口口口 |②---|
口口口口 |----|
18
口口口口 |①---|
口口口口 |----|
①②②口 |②---|
口口口口 |----|
19
口口口口 |①---|
口口口① |----|
口口口② |②---|
口口口口 |----|
20
口口口口 |①---|
口口口口 |----|
口口口口 |②---|
口②②① |----|
21
口口口口 |①---|
①口口口 |----|
②口口口 |②---|
口口口口 |----|
22
口口口口 |①---|
口口口口 |----|
口②②口 |②---|
①口口口 |----|
23
口口口口 |①---|
①口口① |----|
②口口② |②---|
口口口口 |----|
24
口口口口 |①---|
口①①口 |----|
口①①口 |----|
口口口口 |----|
25
口口口口 |①---|
口口口口 |----|
②口口口 |②---|
①口口口 |----|
26
口口口口 |①---|
①②②口 |----|
口口口口 |②---|
口口口口 |----|
27
口口口口 |①---|
口口口② |----|
口口口① |②---|
口口口口 |----|
28
口②②① |①---|
口口口口 |----|
口口口口 |②---|
口口口口 |----|
29
口口口口 |①---|
②口口口 |----|
①口口口 |②---|
口口口口 |----|
30
①口口口 |①---|
口②②口 |----|
口口口口 |②---|
口口口口 |----|
31
口口口口 |①---|
②口口② |----|
①口口① |②---|
口口口口 |----|
32
口口口口 |①---|
口①①口 |----|
口①①口 |----|
口口口口 |----|
33
①①口口 |①---|
口口口口 |----|
口口口口 |----|
口口口口 |----|
34
口口口口 |①---|
口口①① |----|
口②③口 |②---|
口口口口 |③---|
35
口口口口 |①---|
口口①① |----|
口口口口 |----|
口口口口 |----|
36
口口口口 |①---|
口②③口 |----|
①①口口 |②---|
口口口口 |③---|
37
口口口口 |①---|
口口口口 |----|
口②口口 |②---|
口①口口 |----|
38
口口②口 |①---|
口口①口 |----|
口口口口 |②---|
口口口口 |----|
39
口口口口 |①---|
口①①口 |----|
口②②口 |②---|
口口口口 |----|
40
③口口③ |①---|
②口口② |②---|
①口口① |③---|
口口口口 |----|
41
口③③口 |①---|
①①口口 |②---|
口口②② |③---|
口口口口 |----|
42
口口口口 |①---|
①①口口 |②---|
口口②②
口口口口

口③③口
口④④口
口口口口 |③---|
口口口口 |④---|
43
口口口口 |----|
口③③口 |①---|
口②②口 |②---|
口①①口 |③---|
44
口口口口 |①---|
①口口① |②---|
②口口② |③---|
③口口③ |----|
45
口③③口 |①---|
口口②② |②---|
①①口口 |③---|
口口口口 |----|
46
口④④口 |①---|
③③口口 |②---|
口口②② |③---|
①①口口 |④---|
47
②口口② |①---|
③口口③ |----|
口①①口 |②---|
口口口口 |③---|
48
口口口口 |①---|
口口口口 |----|
①口口① |②---|
口②②口 |----|
49
口①①口 |①---|
②①①② |----|
③口口③ |②---|
口口口口 |③---|
50
①口口① |①---|
口口口口 |----|
口口口口 |----|
口口口口 |----|
51
口口口口 |①---|
口口口口 |----|
口口口口 |②---|
①口②口 |----|
52
口口口口 |①---|
口口口口 |----|
口①口② |②---|
口口口口 |----|
53
口口口口 |----|
口①口口 |①---|
口②口口 |②---|
口③口口 |③---|
54
口口口口 |①---|
口口①口 |②---|
口口②口 |③---|
口口③口 |----|
55
口口口口 |①---|
①口②口 |----|
口口口口 |②---|
口口口口 |----|
56
口口口口 |①---|
口口口口 |----|
口①口② |②---|
口口口口 |----|
57
口口口口 |①---|
口①②口 |----|
口口口口 |②---|
口口口口 |----|
58
口口口口 |①---|
口口口① |----|
口口口口 |②---|
口②②口 |----|
59
口①①口 |①---|
②①①② |----|
③口口③ |②---|
口口口口 |③---|
60
①口口① |①---|
口口口口 |----|
口口口口 |----|
口口口口 |----|
61
口口口口 |①---|
口①①口 |----|
口口口口 |----|
口口口口 |----|

不確定度: 0

最終更新:2014年08月02日 00:22