いーあるふぁんくらぶ
みきとP

ADVANCED

Level: 5
BPM: 145
Notes: 321

1
口口口口 |----|
口口口口 |----|
口口口口 |----|
口口口口 |----|
2
口口口口 |----|
口口口口 |----|
口口口口 |----|
口口口口 |----|
3
①口口口 |①---|
口口口口 |----|
口口口口 |----|
口口口口 |----|
4
口口①口 |①---|
口口口口 |----|
②③口口 |--②-|
口口口口 |③---|
5
口口口口 |①---|
口①口口 |----|
口口口口 |----|
口口口口 |----|
6
口口口口 |①---|
口口口① |----|
②③口口 |--②-|
口口口口 |③---|
7
①口②口 |①---|
口口口口 |----|
口口口口 |②---|
口口口口 |----|
8
口口口口 |①---|
口①口② |----|
③④口口 |②-③-|
口口口口 |④---|
9
①口②口 |①---|
口口口口 |----|
口口口口 |②---|
口口口口 |----|
10
口口口口 |①---|
口①口② |----|
口口口口 |②---|
口口口口 |----|
11
口口口口 |①---|
口口口口 |----|
口①①口 |----|
口口口口 |----|
12
②口口② |①---|
①口口① |----|
口口口口 |②---|
口口口口 |----|
13
口口口口 |①---|
口①口口 |----|
口口口口 |②---|
口口②② |----|
14
①口口口 |①---|
口口口口 |----|
口口②② |②---|
口口口口 |----|
15
口口口口 |①---|
口①口口 |----|
口口口口 |②---|
口口②② |----|
16
①口口口 |①---|
口口口口 |----|
口口②② |②---|
口口口口 |----|
17
口②③口 |①-②-|
④口口① |③---|
口⑤口口 |④---|
口口口口 |⑤---|
18
口口口口 |①---|
口口①口 |----|
口②②口 |②---|
口③③口 |③---|
19
口②③口 |①-②-|
④口口① |③---|
口⑤口口 |④---|
口口口口 |⑤---|
20
口①①口 |①---|
口口口口 |----|
口②②口 |②---|
口③③口 |③---|
21
口口②口 |--①-|
①口口③ |②---|
口口④口 |③---|
口口口口 |④---|
22
口口口口 |①---|
口①口口 |----|
口②②口 |②---|
口③③口 |③---|
23
①①②② |①---|
③③④④ |②---|
口口口口 |③---|
口口口口 |④---|
24
①口口① |①---|
口②②口 |----|
①口口① |----|
口口口口 |②---|
25
口②③口 |①-②-|
④口口① |③---|
口⑤口口 |④---|
口口口口 |⑤---|
26
口口口口 |①---|
口口①口 |②---|
口③③② |③---|
口④④口 |④---|
27
口②③口 |①-②-|
④口口① |③---|
口⑤口口 |④---|
口口口口 |⑤---|
28
口①①口 |①---|
口口②口 |②---|
口③③口 |③---|
口④④口 |④---|
29
口口②口 |--①-|
①口口③ |②---|
口口④口 |③---|
口口口口 |④---|
30
口口口口 |①---|
口①口口 |②---|
②③③口 |③---|
口④④口 |④---|
31
①口①口 |①---|
口②口② |②---|
④口④口 |③---|
口③口③ |④---|
32
①口口① |①-②-|
③②②③ |③---|
口口口口 |----|
口口口口 |----|
33
口口①口 |①---|
口口①口 |----|
口口口② |②---|
口口口② |----|
34
②②口① |①---|
③③口① |----|
口口口口 |②---|
口口口口 |③---|
35
口口口② |①---|
口口口② |----|
口口①口 |②---|
口口①口 |----|
36
口口口口 |①---|
③③口口 |----|
②②口① |②---|
口口口① |③---|
37
①①口口 |①---|
口⑤⑤口 |②-③-|
口口③口 |④---|
口②④口 |⑤---|
38
②口口② |①---|
口③③口 |②---|
口①①口 |③---|
口口口口 |----|
39
①①口口 |①---|
口口口口 |②-③-|
口口②口
口③口口

⑤⑤④④
口口⑥⑥
口口口口 |④---|
口口口口 |⑤-⑥-|
40
口③口③ |①---|
口口③口 |②---|
①②①② |③---|
口①②口 |----|
41
①口①口 |①---|
口③口④ |②---|
④口③口 |③---|
口②口② |④---|
42
①口①口 |①-②-|
口③口口 |③-④-|
口②口②
口口④口

口口口口
口口⑥口
⑦口口⑦ |⑤-⑥-|
口⑤口口 |⑦---|
43
口口①口 |----|
①③口口 |①---|
口口③② |②---|
口②口口 |③---|
44
①口口① |①---|
③③口口 |②---|
口口③③ |③---|
②口口② |----|
45
①口①口 |①---|
口③口④ |②---|
④口③口 |③---|
口②口② |④---|
46
①口①口 |①---|
口②口口 |②-③-|
口口口口
口口③口

⑥口口⑥
口口⑤口
口口口口 |④-⑤-|
口④口口 |⑥---|
47
口口口口 |①---|
②③⑤④ |----|
①口口① |②-③-|
口口口口 |④-⑤-|
48
②口口② |①---|
口口口口 |----|
①①①① |②---|
③口口③ |③---|
49
口口口口 |①---|
①①口口 |----|
口口①①
口口口口

口口口口
口口口口
②③⑤④ |②-③-|
口口口口 |④-⑤-|
50
口口口口 |①---|
①①①① |----|
口口口口 |----|
口口口口 |----|
51
①①口⑥ |①---|
口口③口 |②-③-|
②②口口 |④-⑤-|
口⑤④口 |⑥---|
52
①①口⑥ |①---|
口口③口 |②-③-|
②②口口 |④-⑤-|
口⑤④口 |⑥---|
53
口①口口 |----|
口口②口 |①---|
口③口口 |②---|
口口口口 |③---|
54
口口口口 |①---|
①口口② |②---|
口③③口 |③-④-|
口口④⑤ |⑤---|
55
①①口⑥ |①---|
口口③口 |②-③-|
②②口口 |④-⑤-|
口⑤④口 |⑥---|
56
①①口⑥ |①---|
口口③口 |②-③-|
②②口口 |④-⑤-|
口⑤④口 |⑥---|
57
口口口口 |①---|
口②②口 |----|
口①①口 |②---|
口口口口 |----|
58
②①①② |①---|
口口口口 |----|
口口口口 |②---|
③口口③ |③---|
59
口口口口 |①---|
①①口口 |----|
口口①①
口口口口

口口口口
口口口口
②③⑤④ |②-③-|
口口口口 |④-⑤-|
60
口口口口 |①---|
①①①① |----|
口口口口 |----|
口口口口 |----|
61
口口口口 |①---|
口口口口 |----|
口①①口 |----|
口口口口 |----|
62
口口口口 |----|
口口口口 |①-②-|
①口③口 |③---|
口②口口 |----|

不確定度: 0

最終更新:2014年08月02日 00:21