Unicorn tail Dustboxxxx RMX
Dustboxxxx

BASIC

Level: 4
BPM: 200
Notes: 322

1
口口口口 |----|
口口口口 |----|
口口口口 |----|
口口口口 |----|
2
口口口口 |----|
口口口口 |----|
口口口口 |----|
口口口口 |----|
3
口口口口 |①---|
口①①口 |--②-|
口②②口 |----|
口口口口 |----|
4
口口口口 |----|
口口口口 |----|
口口口口 |----|
口口口口 |----|
5
口口口口 |①---|
口口口口 |②---|
口口口口 |③---|
④③②① |④---|
6
口口口口 |①---|
口口口口 |②---|
④③②① |③---|
口口口口 |④---|
7
口口口口 |①---|
④③②① |②---|
口口口口 |③---|
口口口口 |④---|
8
④③②① |①---|
口口口口 |②---|
口口口口 |③---|
口口口口 |④---|
9
口口口口 |①---|
口口口口 |②---|
口口口口 |③---|
①②③④ |④---|
10
口口口口 |①---|
口口口口 |②---|
①②③④ |③---|
口口口口 |④---|
11
口口口口 |①---|
①②③④ |②---|
口口口口 |③---|
口口口口 |④---|
12
①①①① |①---|
口②②口 |----|
口口口口 |②---|
口口口口 |----|
13
④口口口 |①---|
③口口口 |②---|
②口口口 |③---|
①口口口 |④---|
14
口①②③ |①---|
口口口④ |②---|
口口口口 |③---|
口口口口 |④---|
15
口口口口 |①---|
口口口口 |②---|
口口④① |③---|
口口③② |④---|
16
口口口口 |①---|
①①②口 |----|
口③口口 |②--③|
口口④口 |--④-|
17
④口口口 |①---|
③口口口 |②---|
②口口口 |③---|
①口口口 |④---|
18
口①②③ |①---|
口口口④ |②---|
口口口口 |③---|
口口口口 |④---|
19
口口口口 |①---|
口口口口 |②---|
口口④① |③---|
口口③② |④---|
20
②口口② |①---|
①①口口 |----|
口口口口 |②---|
口口口口 |----|
21
口口口④ |①---|
口口口③ |②---|
口口口② |③---|
口口口① |④---|
22
③②①口 |①---|
④口口口 |②---|
口口口口 |③---|
口口口口 |④---|
23
口口口口 |①---|
口口口口 |②---|
①④口口 |③---|
②③口口 |④---|
24
口口口口 |①---|
口②①① |----|
口口③口 |②--③|
口④口口 |--④-|
25
口口口④ |①---|
口口口③ |②---|
口口口② |③---|
口口口① |④---|
26
③②①口 |①---|
④口口口 |②---|
口口口口 |③---|
口口口口 |④---|
27
口口口口 |①---|
口口口口 |②---|
①④口口 |③---|
②③口口 |④---|
28
口口口口 |①---|
口口①① |----|
口口口口 |----|
口口口口 |----|
29
口口口口 |①---|
口①①口 |----|
口①①口 |----|
口口口口 |----|
30
口口口口 |----|
口口口口 |----|
口口口口 |----|
口口口口 |----|
31
口口口口 |①---|
①口口① |----|
①口口① |----|
口口口口 |----|
32
口口口口 |①---|
口口口口 |----|
口口口口 |----|
①口口① |----|
33
①口口① |①---|
口口口口 |----|
口口口口 |----|
口口口口 |----|
34
口口口口 |①---|
口口口口 |----|
口①①口 |----|
口口口口 |----|
35
口口口口 |①---|
口①①口 |----|
口口口口 |----|
口口口口 |----|
36
口口口口 |①---|
口口①口 |----|
口①口口 |----|
口口口口 |----|
37
口口口口 |①---|
口①口口 |----|
口口①口 |----|
口口口口 |----|
38
口口口口 |----|
口口口口 |----|
口口口口 |----|
口口口口 |----|
39
口口口口 |----|
口口口口 |----|
口口口口 |----|
口口口口 |----|
40
口口口口 |----|
口①口口 |----|
口口①口 |----|
口口口口 |①---|
41
口口口口 |①---|
口口口① |----|
①口口口 |----|
口口口口 |----|
42
口口①口 |①---|
口口口口 |----|
口口口口 |----|
口①口口 |----|
43
口①口口 |①---|
口口口口 |----|
口口口口 |----|
口口①口 |----|
44
口口口口 |①---|
①口口口 |----|
口口口① |----|
口口口口 |----|
45
口口口口 |①---|
①口口口 |----|
口口口① |----|
口口口口 |----|
46
口①口口 |①---|
口口口口 |----|
口口口口 |----|
口口①口 |----|
47
口口①口 |①---|
口口口口 |----|
口口口口 |----|
口①口口 |----|
48
口口口口 |①---|
口口口① |----|
①口口口 |----|
口口口口 |----|
49
口口①口 |①---|
口口口② |----|
②口口口 |②---|
口①口口 |----|
50
口②口口 |①---|
①口口口 |----|
口口口① |②---|
口口②口 |----|
51
口口①口 |①---|
口口口② |----|
②口口口 |②---|
口①口口 |----|
52
口②口口 |①---|
①口口口 |----|
口口口① |②---|
口口②口 |----|
53
口口②口 |①---|
口口口① |----|
①口口口 |②---|
口②口口 |----|
54
口①口口 |①---|
②口口口 |----|
口口口② |②---|
口口①口 |----|
55
口口②口 |①---|
口口口① |----|
①口口口 |②---|
口②口口 |----|
56
口口口口 |①---|
口①①口 |----|
口①①口 |----|
口口口口 |----|
57
口口口口 |①---|
口口口口 |②---|
④③口口 |③---|
口口②① |④---|
58
口口口口 |①---|
④③口口 |②---|
口口②① |③---|
口口口口 |④---|
59
①②口口 |①---|
口口③④ |②---|
口口口口 |③---|
口口口口 |④---|
60
口口口口 |①---|
①②口口 |②---|
口口③④ |③---|
口口口口 |④---|
61
口口口口 |①---|
口口口口 |②---|
口口③④ |③---|
①②口口 |④---|
62
口口口口 |①---|
口口③④ |②---|
①②口口 |③---|
口口口口 |④---|
63
口口②① |①---|
④③口口 |②---|
口口口口 |③---|
口口口口 |④---|
64
口口口口 |①---|
口口②① |②---|
④③口口 |③---|
口口口口 |④---|
65
口口④口 |①---|
口口③口 |②---|
口口口② |③---|
口口口① |④---|
66
口④口口 |①---|
口③口口 |②---|
口口②口 |③---|
口口①口 |④---|
67
①口口口 |①---|
②口口口 |②---|
口③口口 |③---|
口④口口 |④---|
68
口①口口 |①---|
口②口口 |②---|
口口③口 |③---|
口口④口 |④---|
69
口④口口 |①---|
口③口口 |②---|
②口口口 |③---|
①口口口 |④---|
70
口口④口 |①---|
口口③口 |②---|
口②口口 |③---|
口①口口 |④---|
71
口口口① |①---|
口口口② |②---|
口口③口 |③---|
口口④口 |④---|
72
口口口口 |①---|
口①①口 |----|
口口口口 |----|
口口口口 |----|
73
口口口口 |①---|
口①①口 |----|
口①①口 |----|
口口口口 |----|
74
口口口口 |----|
口口口口 |----|
口口口口 |----|
口口口口 |----|
75
口口口口 |----|
口口口口 |----|
口口口口 |----|
口口口口 |----|
76
口口口口 |----|
口口口口 |----|
口口口口 |----|
口口口口 |----|
77
口口口口 |①---|
口①①口 |----|
口①①口 |----|
口口口口 |----|
78
口口口口 |①---|
口①①口 |----|
口①①口 |----|
口口口口 |----|
79
口口口口 |①---|
口①①口 |----|
口①①口 |----|
口口口口 |----|
80
口口口口 |①---|
①口口① |----|
①口口① |----|
口口口口 |----|
81
口口口口 |①---|
口口口口 |②---|
口④②口 |③---|
③口口① |④---|
82
口口口口 |①---|
口④②口 |②---|
③口口① |③---|
口口口口 |④---|
83
口①①口 |①---|
②口口② |②---|
③口口③ |③---|
口④④口 |④---|
84
①口口① |①---|
口②②口 |②---|
口③③口 |③---|
④口口④ |④---|
85
口口口口 |①---|
口口口口 |②---|
④口口② |③---|
口③①口 |④---|
86
口口口口 |①---|
④口口② |②---|
口③①口 |③---|
口口口口 |④---|
87
④口口④ |①---|
口③③口 |②---|
②口口② |③---|
口①①口 |④---|
88
口①①口 |①---|
②口口② |②---|
口③③口 |③---|
④口口④ |④---|
89
口口口口 |①---|
口①①口 |----|
口口口口 |----|
口口口口 |----|
90
口口口口 |①---|
口口口口 |----|
口①①口 |----|
口口口口 |----|
91
口口口口 |①---|
①口口① |----|
口口口口 |----|
口口口口 |----|
92
口口口口 |①---|
口口口口 |----|
①口口① |----|
口口口口 |----|
93
口①①口 |①---|
口口口口 |----|
口口口口 |----|
口口口口 |----|
94
口口口口 |①---|
①口口① |----|
口口口口 |----|
口口口口 |----|
95
口口口口 |①---|
口口口口 |----|
①口口① |----|
口口口口 |----|
96
口口口口 |①---|
口口口口 |----|
口口口口 |----|
口①①口 |----|
97
①口口口 |①---|
口②口口 |②---|
口口③口 |③---|
口口口④ |④---|

不確定度: 0

最終更新:2014年08月02日 00:18