セツナトリップ
Last Note. feat. GUMI

BASIC

Level: 3
BPM: 145
Notes: 234

1
口口口口 |----|
口口口口 |----|
口口口口 |----|
口口口口 |----|
2
口口口口 |①---|
口①②口 |②---|
口③④口 |③---|
口口口口 |④---|
3
①口口② |①---|
口口口口 |②---|
口口口口 |③---|
③口口④ |④---|
4
口口口口 |①---|
口①②口 |②---|
口③④口 |③---|
口口口口 |④---|
5
①口口② |①---|
口口口口 |②---|
口口口口 |③---|
③口口④ |④---|
6
③口口口 |①---|
口①口口 |②---|
口②口口 |③---|
④口口口 |④---|
7
口口口③ |①---|
口口①口 |②---|
口口②口 |③---|
口口口④ |④---|
8
③口口口 |①---|
口①口口 |②---|
口②口口 |③---|
④口口口 |④---|
9
口口口口 |①---|
口口①口 |----|
口②口口 |②---|
口口口口 |----|
10
口口口口 |①---|
口口口口 |②---|
口口口口 |③---|
①②③④ |④---|
11
口口口口 |----|
口③口口 |①---|
口①②口 |②---|
口口口口 |③---|
12
口口①① |①---|
②②口口 |----|
口口口口 |②---|
口口口口 |----|
13
口口口口 |①---|
口口口口 |----|
口口①① |②---|
②②口口 |----|
14
口口口口 |①---|
口②①口 |----|
口口口口 |②---|
口口口口 |----|
15
口口口口 |①---|
②口口② |----|
①口口① |②---|
口口口口 |----|
16
①口口① |①---|
口②②口 |----|
口口口口 |②---|
口口口口 |----|
17
口口口口 |①---|
口口口口 |----|
口①①口 |②---|
口②②口 |----|
18
口口口口 |①---|
口口口口 |----|
②口口口 |②---|
①口口口 |----|
19
②口口口 |①---|
①口口口 |----|
口口口口 |②---|
口口口口 |----|
20
口口口口 |①---|
口口口口 |----|
口口口② |②---|
口口口① |----|
21
口口口② |①---|
口③口① |----|
口口口口 |②---|
口口口口 |③---|
22
口口口口 |①---|
口口②口 |----|
口口①口 |②---|
口口口口 |----|
23
口口口口 |①---|
口②口口 |----|
口①口口 |②---|
口口口口 |----|
24
口口口口 |①---|
口口口口 |----|
②口口② |②---|
①口口① |----|
25
②口口② |①---|
①口口① |----|
口口口口 |②---|
口口口口 |----|
26
口口口口 |①---|
口①②口 |----|
口①②口 |②---|
口口口口 |----|
27
口口口口 |①---|
③口口④ |②---|
口口口口 |③---|
①口口② |④---|
28
口①②口 |①---|
口口口口 |②---|
口口口口 |③---|
口③④口 |④---|
29
③口口③ |①---|
口口口口 |②---|
①口口② |③---|
口口口口 |----|
30
口口口口 |①---|
口①②口 |----|
口①②口 |②---|
口口口口 |----|
31
口口口口 |①---|
③口口④ |②---|
口口口口 |③---|
①口口② |④---|
32
口①②口 |①---|
口口口口 |②---|
口口口口 |③---|
口③④口 |④---|
33
口口②口 |①---|
口①口口 |----|
口口口口 |②---|
口口口口 |----|
34
①①口口 |①---|
口口口口 |----|
口口口口 |----|
口口口口 |----|
35
口口口口 |①---|
口口口口 |----|
口口口口 |----|
口口①① |----|
36
口口口口 |①---|
口口口口 |----|
口口口口 |----|
①①口口 |----|
37
口口①① |①---|
口口口口 |----|
口口口口 |----|
口口口口 |----|
38
口口口口 |①---|
①②③④ |②---|
口口口口 |③---|
口口口口 |④---|
39
口口口口 |①---|
口口口口 |②---|
口口口口 |③---|
④③②① |④---|
40
①②③④ |①---|
口口口口 |②---|
口口口口 |③---|
口口口口 |④---|
41
口口口口 |①---|
口②②口 |----|
口①①口 |②---|
口口口口 |----|
42
口口口口 |①---|
口口口口 |----|
口口口② |②---|
①口口口 |----|
43
口口口② |①---|
①口口口 |----|
口口口口 |②---|
口口口口 |----|
44
口①口口 |①---|
口口②口 |----|
口口口口 |②---|
口口口口 |----|
45
口口口口 |①---|
口口口口 |----|
口①口口 |②---|
口口②口 |----|
46
④口口口 |①---|
③口口口 |②---|
②口口口 |③---|
①口口口 |④---|
47
口口口④ |①---|
口口口③ |②---|
口口口② |③---|
口口口① |④---|
48
口④口口 |①---|
口③口口 |②---|
口②口口 |③---|
口①口口 |④---|
49
口口④口 |①---|
口口③口 |②---|
口口②口 |③---|
口口①口 |④---|
50
②口口② |①---|
口①③口 |②---|
口①③口 |③---|
口口口口 |----|
51
口口口口 |①---|
③口口④ |②---|
口口口口 |③---|
①口口② |④---|
52
口①②口 |①---|
口口口口 |②---|
口口口口 |③---|
口③④口 |④---|
53
③口口③ |①---|
口口口口 |②---|
①口口② |③---|
口口口口 |----|
54
口口口口 |①---|
口①②口 |----|
口①②口 |②---|
口口口口 |----|
55
口口口口 |①---|
③口口④ |②---|
口口口口 |③---|
①口口② |④---|
56
口①②口 |①---|
口口口口 |②---|
口口口口 |③---|
口③④口 |④---|
57
口口口口 |①---|
口①口口 |----|
口口②口 |②---|
口口口口 |----|
58
口①②口 |①---|
③口口④ |②---|
口口口口 |③---|
口口口口 |④---|
59
②②②② |①---|
口口口口 |----|
口①①口 |②---|
口口口口 |----|
60
口口口口 |①---|
口②口④ |②---|
①口③口 |③---|
口口口口 |④---|
61
口口口口 |①---|
④口②口 |②---|
口③口① |③---|
口口口口 |④---|
62
口②口④ |①---|
口口口口 |②---|
口口口口 |③---|
①口③口 |④---|
63
④口②口 |①---|
口口口口 |②---|
口口口口 |③---|
口③口① |④---|
64
口口口① |①---|
口口②口 |②---|
口口口③ |③---|
口口④口 |④---|
65
口①口口 |①---|
②口口口 |②---|
口③口口 |③---|
④口口口 |④---|
66
口口①口 |①---|
口口口② |②---|
口口③口 |③---|
口口口④ |④---|
67
①口口口 |①---|
口②口口 |②---|
③口口口 |③---|
口④口口 |④---|
68
口口口口 |①---|
口口口口 |----|
口①①口 |----|
口口口口 |----|

不確定度: 0

最終更新:2014年08月02日 00:17