セツナトリップ
Last Note. feat. GUMI

ADVANCED

Level: 7
BPM: 145
Notes: 457

1
口口口口 |----|
口口口口 |----|
口口口口 |----|
口口口口 |----|
2
口口口口 |①-②-|
①②③④ |③-④-|
口⑤⑥口 |⑤-⑥-|
口⑦⑧口 |⑦-⑧-|
3
①②③④ |①-②-|
口口口口 |③-④-|
⑤口口⑥ |⑤-⑥-|
⑦口口⑧ |⑦-⑧-|
4
口口口口 |①-②-|
④③②① |③-④-|
口⑥⑤口 |⑤-⑥-|
口⑧⑦口 |⑦-⑧-|
5
④③②① |①-②-|
口口口口 |③-④-|
⑥口口⑤ |⑤-⑥-|
⑧口口⑦ |⑦-⑧-|
6
口口口口 |①-②-|
①②③④ |③-④-|
口⑤⑥口 |⑤-⑥-|
口⑦⑧口 |⑦-⑧-|
7
①②③④ |①-②-|
口口口口 |③-④-|
⑤口口⑥ |⑤-⑥-|
⑦口口⑧ |⑦-⑧-|
8
口口口口 |①-②-|
④③②① |③-④-|
口⑥⑤口 |⑤-⑥-|
口⑧⑦口 |⑦-⑧-|
9
②口口① |①-②-|
⑥口口⑥ |③-④-|
口⑤⑤口 |⑤---|
④口口③ |⑥---|
10
口①②口 |①-②-|
口③⑤口 |③-④-|
口⑥④口 |--⑤-|
口口⑦口 |⑥-⑦-|
11
口口口口 |--①-|
⑤⑦口⑥ |②-③-|
③口口④ |④-⑤-|
①口口② |⑥-⑦-|
12
②口口口 |①---|
口口①口 |--②-|
④③口口 |----|
口口口口 |③-④-|
13
口⑤④口 |--①-|
口③⑥口 |②-③-|
口⑦②口 |④-⑤-|
口①口口 |⑥-⑦-|
14
口口口口 |--①-|
③④口口 |②-③-|
口口⑥⑤ |④-⑤-|
⑦口②① |⑥-⑦-|
15
口②口口 |①---|
口口口口 |②---|
③⑤口口 |③---|
口①口④ |④-⑤-|
16
口口口口 |①---|
④口⑤① |--②-|
口口③口 |③-④-|
②口口口 |--⑤-|
17
①口口① |①---|
口⑤口口 |②---|
②口④② |③---|
口③③口 |④-⑤-|
18
②口①口 |①---|
口口口口 |--②-|
口口口③ |----|
口口口口 |③---|
19
口口口口 |--①-|
口口②口 |--②-|
③⑤口口 |③---|
口①④口 |④-⑤-|
20
口口口② |①---|
口③①口 |--②-|
口口口口 |----|
口口口口 |③---|
21
②口口口 |①---|
口口口③ |----|
④口口口 |②-③-|
口口①⑤ |④-⑤-|
22
口口口口 |①---|
口③口口 |--②-|
口口②口 |----|
口①口口 |③---|
23
口口口① |①---|
②口口口 |--②-|
口口③口 |----|
口口口口 |③---|
24
口口口口 |①---|
口口①口 |②---|
口②口口 |③---|
口④③口 |④---|
25
①口口① |①---|
口②②口 |--②-|
①口口① |----|
③④口口 |--③④|
26
②②⑤⑤ |①--②|
⑥口③口 |--③-|
口④口口 |④--⑤|
口口①口 |--⑥-|
27
口口口③ |--①-|
④口口口 |②-③-|
口②口⑤ |④-⑤-|
⑥口①⑦ |⑥-⑦-|
28
③口口口 |①-②-|
口口口① |③-④-|
②口④口
口口口口

口口⑤口
口口口⑦
口⑧口口 |⑤-⑥-|
口⑥口口 |⑦-⑧-|
29
口口口① |①-②-|
②④⑤口 |③-④⑤|
口口口口 |----|
⑥⑦口③ |--⑥⑦|
30
②②⑤⑤ |①--②|
⑥口③口 |--③-|
口④口口 |④--⑤|
口口①口 |--⑥-|
31
口口口③ |--①-|
④口口口 |②-③-|
口②口⑤ |④-⑤-|
⑥口①⑦ |⑥-⑦-|
32
③口⑤⑦ |①-②-|
口⑥口① |③-④-|
②口④口 |⑤-⑥-|
⑧口口口 |⑦-⑧-|
33
口口口口 |①---|
①口口① |----|
口②②口 |②---|
口口口口 |----|
34
⑦②③口 |①-②-|
⑥口口口 |③--④|
⑤口口口 |-⑤-⑥|
④①①口 |-⑦--|
35
口②③⑦ |①-②-|
口口口⑥ |③--④|
口口口⑤ |-⑤-⑥|
口①①④ |-⑦--|
36
⑦②③口 |①-②-|
⑥口口口 |③--④|
⑤口口口 |-⑤-⑥|
④①①口 |-⑦--|
37
⑥⑦③② |①-②-|
⑧口口④ |③-④-|
口⑤⑤口 |⑤-⑥-|
口①①口 |⑦-⑧-|
38
⑧口口⑦ |①-②-|
口⑥⑤口 |③-④-|
④口口③ |⑤-⑥-|
口②①口 |⑦-⑧-|
39
口⑥⑦口 |--①-|
④口口⑤ |②-③-|
口②③口 |④-⑤-|
口口口① |⑥-⑦-|
40
⑦口口⑥ |--①-|
口⑤④口 |②-③-|
③口口② |④-⑤-|
口①口口 |⑥-⑦-|
41
②口口② |①---|
口②②口 |----|
口①①口 |②---|
口口口口 |----|
42
口①口口 |①---|
口③③口 |----|
口口口② |②---|
口口口口 |--③-|
43
口口口口 |--①-|
口口口口 |②-③-|
①②③④ |④-⑤-|
⑤⑥⑦口 |⑥-⑦-|
44
③口口④ |①---|
口口口口 |----|
口②②口 |②---|
口口口① |③-④-|
45
口口口口 |①---|
④①①④ |②③-④|
⑤口口⑤ |----|
口②③口 |⑤---|
46
口⑦⑧口 |①-②-|
口⑤⑥口 |③-④-|
口③④口 |⑤-⑥-|
口①②口 |⑦-⑧-|
47
⑦口口⑧ |①-②-|
⑤口口⑥ |③-④-|
③口口④ |⑤-⑥-|
①口口② |⑦-⑧-|
48
口口口口 |①-②-|
口口口口 |③-④-|
③④⑧⑦ |⑤-⑥-|
①②⑥⑤ |⑦-⑧-|
49
口口口口 |①---|
口①①口 |----|
口口口口 |----|
②③口口 |--②③|
50
口口口口 |①---|
②口③② |②-③-|
②口口②
口口①口

口口⑤⑤
⑥口口口
口④口口 |④--⑤|
口口口口 |--⑥-|
51
口口口③ |--①-|
④口口口 |②-③-|
口②口⑤ |④-⑤-|
⑥口①⑦ |⑥-⑦-|
52
③口口口 |①-②-|
口口口① |③-④-|
②口④口
口口口口

口口⑤口
口口口⑦
口⑧口口 |⑤-⑥-|
口⑥口口 |⑦-⑧-|
53
口口口① |①-②-|
②④⑤口 |③-④⑤|
口口口口 |----|
⑥⑦口③ |--⑥⑦|
54
②②⑤⑤ |①--②|
⑥口③口 |--③-|
口④口口 |④--⑤|
口口①口 |--⑥-|
55
口口口③ |--①-|
④口口口 |②-③-|
口②口⑤ |④-⑤-|
⑥口①⑦ |⑥-⑦-|
56
③口⑤⑦ |①-②-|
口⑥口① |③-④-|
②口④口 |⑤-⑥-|
⑧口口口 |⑦-⑧-|
57
口口口口 |①---|
①口口① |----|
口②②口 |②---|
口口③口 |--③-|
58
口口口⑤ |①-②-|
口③①⑧ |③-④-|
口⑦口④ |⑤-⑥-|
口②⑥口 |⑦-⑧-|
59
②①①② |①---|
口②②口 |----|
口口口口 |②---|
口口口口 |----|
60
口口口口 |①-②-|
口口口口 |③-④-|
①②③④ |⑤-⑥-|
口⑤⑥口 |----|
61
①③⑤⑦ |①-②-|
②④⑥⑧ |③-④-|
口口口口 |⑤-⑥-|
口口口口 |⑦-⑧-|
62
口口口口 |①---|
口口口口 |----|
口口口口 |②---|
①①②② |----|
63
③口口③ |①--②|
④②②④ |---③|
口①①口 |----|
口口口口 |④---|
64
口①⑤口 |①-②-|
口②⑥口 |③-④-|
口③⑦口 |⑤-⑥-|
口④⑧口 |⑦-⑧-|
65
①口口⑤ |①-②-|
②口口⑥ |③-④-|
③口口⑦ |⑤-⑥-|
④口口⑧ |⑦-⑧-|
66
口⑦⑧口 |①-②-|
口⑤⑥口 |③-④-|
口③④口 |⑤-⑥-|
口①②口 |⑦-⑧-|
67
①口口① |①--②|
②口口② |--③-|
③口口③ |④-⑤-|
④⑤⑥⑦ |⑥-⑦-|
68
口口口口 |①---|
口①①口 |----|
口①①口 |----|
口口口口 |----|

不確定度: 0

最終更新:2014年08月02日 00:17