最終回STORY
MY FIRST STORY
BASIC
Level: 3
BPM: 215
Notes: 158
1
口口口口 |----|
口口口口 |----|
口口口口 |----|
口口口口 |----|
2
口口口口 |----|
口口口口 |----|
口口口口 |----|
口口口口 |----|
3
口口口口 |----|
口口口口 |----|
口口口口 |----|
口口口口 |----|
4
口口口口 |----|
口口口口 |----|
口口口口 |----|
口口口口 |----|
5
口口口口 |----|
口口口口 |----|
口口口口 |----|
口口口口 |----|
6
口口口口 |----|
口口口口 |----|
口口口口 |----|
口口口口 |----|
7
口口口口 |----|
口口口口 |----|
口口口口 |----|
口口口口 |----|
8
口口口口 |----|
口口口口 |----|
口口口口 |----|
口口口口 |----|
9
口口口口 |----|
口口口口 |----|
口①①口 |----|
口口口口 |--①-|
10
口口③口 |----|
口②①口 |①---|
口口口口 |②---|
口口口口 |③---|
11
③①口② |①---|
口④④口 |②---|
口口口口 |③---|
口口口口 |--④-|
12
口口口口 |----|
口口口口 |①---|
口①②口 |②---|
口③口口 |③---|
13
口口口口 |①---|
口口口口 |②---|
口④④口 |③---|
②口①③ |--④-|
14
口口口口 |----|
口口口口 |----|
口口口口 |----|
口口口口 |----|
15
口口口口 |----|
口口口口 |----|
口口口口 |----|
口①①口 |--①-|
16
口口口口 |----|
口口③口 |①---|
口②①口 |②---|
口口口口 |③---|
17
口③②口 |①---|
口①口口 |②---|
口④④口 |③---|
口口口口 |--④-|
18
口口③口 |----|
口②①口 |①---|
口口口口 |②---|
口口口口 |③---|
19
③①口② |①---|
口④④口 |②---|
口口口口 |③---|
口口口口 |--④-|
20
口口口口 |----|
口口口口 |①---|
口①②口 |②---|
口③口口 |③---|
21
口口口口 |①---|
口口口口 |②---|
口④④口 |③---|
②口①③ |--④-|
22
口口口口 |----|
口口口口 |----|
口口口口 |----|
口口口口 |----|
23
口口口口 |----|
口口口口 |----|
口口口口 |----|
口①①口 |--①-|
24
口口口口 |----|
口③口口 |①---|
口①②口 |②---|
口口口口 |③---|
25
口②③口 |①---|
口口①口 |②---|
口口口口 |③---|
口口口口 |----|
26
口口口口 |①---|
①口口① |----|
口口口口 |----|
口口口口 |----|
27
口口口口 |----|
口口口口 |----|
口口口口 |----|
口口口口 |----|
28
口口口口 |①---|
口口口口 |----|
①口口① |----|
口口口口 |----|
29
口口口口 |----|
口口口口 |----|
口口口口 |----|
口口口口 |----|
30
口口口口 |①---|
口①①口 |----|
口口口口 |----|
口口口口 |----|
31
口口口口 |----|
口口口口 |----|
口口口口 |----|
口口口口 |----|
32
口口口口 |①---|
口口口口 |----|
口①①口 |----|
口口口口 |----|
33
口口口口 |----|
口口口口 |----|
口口口口 |----|
口口口口 |----|
34
口口口口 |①---|
口口口① |----|
口口口② |②---|
口口口口 |----|
35
口口口口 |①---|
口口口口 |----|
口口口口 |②---|
口口②① |----|
36
口口口口 |①---|
口口口口 |----|
口口口口 |②---|
②①口口 |----|
37
口口口口 |①---|
②口口口 |----|
①口口口 |②---|
口口口口 |----|
38
口口口口 |①---|
口①②口 |----|
口口口口 |②---|
口口口口 |----|
39
口口口口 |①---|
口口口口 |----|
口①①口 |----|
口口口口 |----|
40
口口口口 |①---|
口①①口 |----|
口口口口 |----|
口口口口 |----|
41
口口口口 |①---|
口④③口 |②---|
口②①口 |③---|
口口口口 |④---|
42
口②口① |①---|
口口口口 |----|
口口口口 |----|
口口口口 |②---|
43
口口口口 |----|
口口①口 |----|
口口口口 |①---|
口口口口 |----|
44
①口②口 |①---|
口口口口 |----|
口口口口 |----|
口口口口 |②---|
45
口口口口 |----|
口①口口 |----|
口口口口 |①---|
口口口口 |----|
46
口口口口 |①---|
口口口口 |----|
口①①口 |----|
口口口口 |----|
47
口口口口 |①---|
口①①口 |----|
口口口口 |----|
口口口口 |----|
48
口①①口 |①---|
口口口口 |----|
口口口口 |----|
口口口口 |----|
49
①口口① |①---|
口口口口 |----|
口口口口 |----|
口口口口 |----|
50
口口口口 |①---|
①口口① |----|
口口口口 |----|
口口口口 |----|
51
口口口口 |----|
口口口口 |----|
口口口口 |----|
口口口口 |----|
52
口口口口 |①---|
口口口口 |----|
口①①口 |----|
口口口口 |----|
53
口口口口 |----|
②口口② |----|
口①①口 |①---|
口口口口 |--②-|
54
口口①口 |----|
口口②口 |①---|
口口③口 |②---|
口口口口 |③---|
55
口口口口 |①---|
④口口④ |②---|
口③口口 |③---|
口②①口 |--④-|
56
口①口口 |----|
口②口口 |①---|
口③口口 |②---|
口口口口 |③---|
57
口口口口 |①---|
④口口④ |②---|
口口③口 |③---|
口①②口 |--④-|
58
口口口口 |----|
口口口口 |----|
口口口口 |----|
口口口口 |----|
59
口口口口 |①---|
口①①口 |----|
口口口口 |----|
口口口口 |----|
60
①口口① |①---|
②口口② |----|
口口口口 |②---|
口口口口 |----|
61
口口口口 |①---|
口口口口 |----|
①口口① |②---|
②口口② |----|
62
口口口口 |----|
口口口口 |①---|
口③②口 |②---|
口①口口 |③---|
63
④口③④ |①---|
口②①口 |②---|
口口口口 |③---|
口口口口 |--④-|
64
口口口口 |----|
口口口口 |----|
口口口口 |----|
口口口口 |----|
65
口①①口 |①---|
②口口② |----|
口口口口 |----|
口口口口 |--②-|
66
口口口口 |----|
口①①口 |----|
口口口口 |①---|
口口口口 |----|
67
口口口口 |①---|
口口口口 |----|
③①①③ |②---|
口②②口 |--③-|
68
口口口口 |----|
口口口口 |----|
口口口口 |----|
口口口口 |----|
69
口①①口 |----|
口口口口 |----|
口口口口 |----|
口口口口 |--①-|
70
口口口口 |----|
口口口口 |----|
口口口口 |----|
口口口口 |----|
71
口口口口 |①---|
①口口① |----|
口口口口 |----|
口口口口 |----|
72
口口口口 |①---|
口口口口 |----|
①口口① |----|
口口口口 |----|
73
口口口口 |----|
口口口口 |----|
口口口口 |----|
口口口口 |----|
74
口口口口 |①---|
口口①口 |--②-|
口②口口 |----|
口口③口 |③---|
75
口口口口 |----|
口口口口 |----|
口口口口 |----|
口口口口 |----|
76
口口口口 |①---|
口①口口 |--②-|
口口②口 |----|
口③口口 |③---|
不確定度: 0