最終回STORY
MY FIRST STORY

ADVANCED

Level: 5
BPM: 215
Notes: 242

1
口口口口 |----|
口口口口 |----|
口口口口 |----|
口口口口 |----|
2
口口口口 |----|
口口口口 |----|
口口口口 |----|
口口口口 |----|
3
口口口口 |----|
口口口口 |----|
口口口口 |----|
口口口口 |----|
4
口口口口 |----|
口口口口 |----|
口口口口 |----|
口口口口 |----|
5
口口口口 |----|
口口口口 |----|
口口口口 |----|
口口口口 |----|
6
口口口口 |----|
口口口口 |----|
口口口口 |----|
口口口口 |----|
7
口口口口 |----|
口口口口 |----|
口口口口 |----|
口口口口 |----|
8
口口口口 |----|
口口口口 |----|
口口口口 |----|
口口口口 |----|
9
①①口口 |----|
口口口口 |----|
口口口口 |----|
口口口口 |--①-|
10
口口口口 |----|
口③②① |①---|
口口口口 |②---|
口口口口 |③---|
11
口口口口 |①---|
①口口口 |②---|
口口③② |③---|
④④口口 |--④-|
12
口口口口 |----|
口口口口 |①---|
口③②① |②---|
口口口口 |③---|
13
④④口口 |①---|
口口③② |②---|
①口口口 |③---|
口口口口 |--④-|
14
口口口口 |----|
口口①① |----|
口口口口 |①---|
口口口口 |----|
15
口口口口 |①---|
口口口口 |----|
①①口口 |②---|
③③②② |--③-|
16
口口口口 |----|
口口口口 |①---|
口②①③ |②---|
口口口口 |③---|
17
口口④④ |①---|
口③②口 |②---|
①口口口 |③---|
口口口口 |--④-|
18
口口口口 |----|
①②③口 |①---|
口口口口 |②---|
口口口口 |③---|
19
口口口口 |①---|
口口口① |②---|
②③口口 |③---|
口口④④ |--④-|
20
口口口口 |----|
口口口口 |①---|
①②③口 |②---|
口口口口 |③---|
21
口口④④ |①---|
②③口口 |②---|
口口口① |③---|
口口口口 |--④-|
22
口口口口 |----|
①①口口 |----|
口口口口 |①---|
口口口口 |----|
23
口口口口 |①---|
口口口口 |----|
口口①① |②---|
②②③③ |--③-|
24
口口口口 |----|
口口口口 |①---|
③①②口 |②---|
口口口口 |③---|
25
口口口口 |①---|
口②③口 |②---|
口口口① |③---|
口口口口 |----|
26
口①①口 |①---|
③口口② |--②-|
口口口口 |----|
口口口口 |③---|
27
口口口口 |----|
口口口口 |----|
口口口口 |----|
口①口口 |①---|
28
口口口口 |①---|
口口口口 |--②-|
②口口③ |----|
口口①口 |③---|
29
口口①口 |----|
口口口口 |----|
口口口口 |----|
口口口口 |①---|
30
口①口口 |①---|
③口口② |--②-|
口口口口 |----|
口口口口 |③---|
31
口口口口 |----|
口口口口 |①---|
口口①口 |----|
口②口口 |②---|
32
口口口口 |①---|
口④口口 |--②-|
口②③口 |--③-|
口口①口 |--④-|
33
口①口口 |----|
口口口口 |----|
口口口口 |----|
口口口口 |①---|
34
口口①口 |①---|
②口口③ |--②-|
④口口口 |--③-|
口口口口 |--④-|
35
口口口口 |----|
口⑤④口 |①---|
口③②口 |②-③-|
口①①口 |④-⑤-|
36
②口口① |①---|
口口口口 |--②-|
口③③口 |----|
口口口口 |③---|
37
口口①口 |----|
口口口口 |----|
口口口口 |----|
口口口口 |①---|
38
口①口口 |①---|
③口口② |--②-|
口口口口 |----|
口口口口 |③---|
39
口口口口 |----|
口口口口 |----|
口口口① |----|
口口口口 |①---|
40
④口口口 |①---|
③②口口 |--②-|
口口①口 |--③-|
口口口口 |--④-|
41
口口口口 |----|
口口口口 |----|
口口①口 |----|
口口口口 |①---|
42
口口②② |①---|
口①口口 |--②-|
③③口口 |----|
口口口口 |③---|
43
口口口口 |--①-|
①①口口 |----|
口口口口 |②---|
口口②② |----|
44
①①口口 |①---|
口口②② |--②-|
③③口口 |----|
口口口口 |③---|
45
口口①口 |----|
口②口口 |----|
口口口口 |①---|
口口口口 |②---|
46
口口口口 |①---|
口口口口 |----|
口口①口 |----|
口口口口 |----|
47
①①口口 |①---|
③③②② |--②-|
口口口口 |--③-|
口口口口 |----|
48
口口口口 |①---|
口口口口 |----|
口①①口 |----|
口口口口 |----|
49
口①①口 |①---|
口口口口 |----|
口口口口 |----|
口口口口 |----|
50
①口口① |①---|
口②⑤口 |②-③-|
口④③口 |--④-|
口口口口 |⑤---|
51
口口口口 |--①-|
①口口① |----|
口口口口 |----|
口口口口 |----|
52
口口口口 |①---|
口口口口 |----|
口口口口 |----|
口①①口 |----|
53
口③③口 |----|
口②口口 |----|
口口①口 |①-②-|
口口口口 |--③-|
54
口口口口 |----|
口④口① |①---|
口口③② |②---|
口口口口 |③-④-|
55
口口口口 |----|
口口④口 |①---|
②③口② |②---|
口口①口 |③-④-|
56
①口口① |----|
②口口② |①---|
③口口③ |②---|
口口口口 |③---|
57
口口口口 |①---|
口⑤④口 |②-③-|
⑥③②⑥ |④-⑤-|
①口口① |--⑥-|
58
口口①口 |----|
口口口口 |----|
口口口口 |----|
口口口口 |①---|
59
口①口口 |①---|
⑤口②⑤ |②-③-|
口③口口 |--④-|
口口④口 |--⑤-|
60
口口口口 |----|
口口口口 |----|
①口口① |①---|
口口口口 |----|
61
口口口口 |①---|
口②②口 |----|
口口口口 |②---|
①口口① |----|
62
③③①① |----|
口口②② |①---|
口口口口 |②---|
口口口口 |③---|
63
口口口口 |①---|
①①④口 |②---|
口⑤②② |③---|
口口③③ |④-⑤-|
64
口口口口 |----|
口口口口 |----|
口口口口 |----|
①①口口 |①---|
65
口口⑤口 |①-②-|
口④①口 |--③-|
口②③口 |--④-|
口口口口 |--⑤-|
66
①口口① |----|
口口口口 |----|
口口口口 |①---|
口口口口 |----|
67
口口口口 |①---|
④①口④ |②---|
口②口口 |③---|
口③口口 |--④-|
68
口口口口 |----|
口口口口 |①---|
①口口① |----|
口口口口 |----|
69
口口口口 |----|
口②②口 |----|
口口口口 |①---|
口①①口 |--②-|
70
口口口口 |----|
口口口③ |①---|
②口口① |②---|
口口口口 |③---|
71
口②②口 |①---|
①口口口 |----|
口口口口 |②---|
口口口口 |----|
72
口口口口 |①---|
口口口口 |----|
口口口口 |----|
口①①口 |----|
73
口口口口 |----|
口②①口 |----|
口口口口 |①---|
口口口口 |②---|
74
口口口口 |①---|
口口口口 |②-③-|
①④②① |--④-|
口③⑤口 |⑤---|
75
口口口口 |----|
口口口口 |----|
口口①口 |----|
口口口口 |①---|
76
口④②口 |①---|
①③⑤① |②-③-|
口口口口 |--④-|
口口口口 |⑤---|

不確定度: 0

最終更新:2014年08月02日 00:15