恋愛観測
NU-KO

BASIC

Level: 3
BPM: 188
Notes: 243

1
口口口口 |----|
口口口口 |----|
口口口口 |----|
口口口口 |----|
2
口①①口 |①---|
口口口口 |----|
口②②口 |----|
口口口口 |--②-|
3
口口口口 |----|
口①①口 |----|
口口口口 |----|
口口口口 |--①-|
4
口口口口 |----|
口口口口 |----|
口口口口 |----|
口①①口 |--①-|
5
口口口口 |----|
口口口口 |----|
口口口口 |----|
口口口口 |----|
6
口口口口 |①---|
口口口口 |----|
口口口口 |②---|
①②口口 |----|
7
口口口口 |①---|
口口口口 |----|
口口口口 |②---|
口口①② |----|
8
口口口口 |①---|
口口口口 |----|
口口口口 |②---|
①②口口 |----|
9
口口口口 |①---|
口口口口 |----|
口③③口 |②---|
口口①② |--③-|
10
口口口口 |----|
口①口口 |----|
口口①口 |----|
口口口口 |--①-|
11
口口口口 |----|
口口口口 |----|
口①①口 |----|
口口口口 |--①-|
12
口口口口 |----|
口口①口 |----|
口①口口 |----|
口口口口 |--①-|
13
口口口口 |----|
口口口口 |----|
口①①口 |----|
口口口口 |--①-|
14
口口口口 |----|
口口口口 |----|
口口口口 |----|
口口口口 |----|
15
口②②口 |①---|
口①①口 |----|
口口口口 |----|
口口口口 |--②-|
16
口口口口 |----|
①口口① |----|
口口口口 |----|
口口口口 |--①-|
17
口口口口 |----|
口口口口 |----|
口口口口 |----|
口口口口 |----|
18
口口口口 |①---|
口口口口 |②---|
①②③④ |③---|
口口口口 |④---|
19
口②③① |①---|
口口④口 |--②-|
口口口口 |--③-|
口口口口 |--④-|
20
口口口口 |--①-|
口口口口 |--②-|
口口①口 |----|
口口②口 |----|
21
①③②口 |①---|
口④口口 |--②-|
口口口口 |--③-|
口口口口 |--④-|
22
口口口口 |--①-|
口口口口 |--②-|
口①口口 |----|
口②口口 |----|
23
口②③① |①---|
口口④口 |--②-|
口口口口 |--③-|
口口口口 |--④-|
24
口口口口 |--①-|
口③④口 |--②-|
口②①口 |--③-|
口口口口 |--④-|
25
口口口口 |----|
口口口口 |----|
口口口口 |----|
口口口口 |----|
26
口口口口 |①---|
口口口口 |----|
口①①口 |----|
口口口口 |----|
27
口口口口 |①---|
①①②② |②---|
口口口口
口口口口

口口口口
③③口口
口口口口 |----|
口口口口 |--③-|
28
口口口口 |--①-|
口口①① |----|
口口口口 |----|
口口口口 |----|
29
口口口口 |①---|
口①口口 |----|
口口①口 |----|
口口口口 |----|
30
口①②口 |①---|
口③口口 |②---|
口⑤④口 |③---|
口口口口 |④-⑤-|
31
口口口口 |----|
②口口② |--①-|
①口口① |----|
口口口口 |--②-|
32
口口口口 |----|
口口口口 |----|
口口口口 |①---|
口①①口 |----|
33
口口口口 |①---|
口①②口 |----|
口②①口 |----|
口口口口 |--②-|
34
口口口口 |----|
口口口口 |----|
口口口口 |----|
口口口口 |----|
35
口口口口 |①---|
①①②② |②---|
口口口口
口口口口

口口口口
③③口口
口口口口 |----|
口口口口 |--③-|
36
口口口口 |--①-|
口口①① |----|
口口口口 |----|
口口口口 |----|
37
口口口口 |①---|
口①口口 |----|
口口①口 |----|
口口口口 |----|
38
口①②口 |①---|
口③口口 |②---|
口⑤④口 |③---|
口口口口 |④-⑤-|
39
口②②口 |----|
口①①口 |--①-|
口口口口 |----|
口口口口 |--②-|
40
①②口口 |----|
口口口口 |----|
口口口口 |①---|
口口口口 |②---|
41
口口口口 |①---|
口③②① |②---|
④口口口 |③---|
口口口口 |④---|
42
口口口口 |①---|
口口口口 |----|
口①②口 |②---|
口②①口 |----|
43
口口口口 |①---|
口①①口 |----|
口口口口 |----|
口口口口 |----|
44
口口口口 |①---|
口①②口 |----|
口口口口 |②---|
口口口口 |----|
45
口口口口 |①---|
口口口口 |----|
口①②口 |②---|
口口口口 |----|
46
口口口口 |①---|
口口口口 |----|
口口口口 |②---|
口①②口 |----|
47
口口口口 |①---|
口口口口 |----|
口①②口 |②---|
口口口口 |----|
48
口口口口 |①---|
口①②口 |----|
口口口口 |②---|
口口口口 |----|
49
口①②口 |①---|
口③③口 |----|
口口口口 |②---|
口口口口 |--③-|
50
口口口口 |----|
口口口口 |----|
口口口口 |----|
口口口口 |----|
51
口口口口 |①---|
口口口口 |----|
口①①口 |----|
口口口口 |----|
52
①口口口 |①---|
口①口口 |----|
口口口口 |----|
口口口口 |----|
53
口口口口 |①---|
口口口口 |----|
口口①口 |②---|
口口②口 |----|
54
口口口① |①---|
口口①口 |----|
口口口口 |----|
口口口口 |----|
55
口口口口 |①---|
口口口口 |----|
口①口口 |②---|
口②口口 |----|
56
口口口口 |①---|
口口口口 |----|
①②口口 |②---|
口口口口 |----|
57
口口口口 |①---|
口口口口 |----|
口口①② |②---|
口口口口 |----|
58
口口口口 |①---|
①口口② |----|
口①②口 |②---|
口口口口 |----|
59
①口口② |①---|
口①②口 |----|
口口口口 |②---|
口口口口 |----|
60
口①①口 |①---|
口口口口 |----|
口口口口 |----|
口口口口 |----|
61
口口口口 |①---|
口口口口 |----|
口①①口 |----|
口口口口 |----|
62
口口口口 |①---|
①①②② |②---|
口口口口
口口口口

口口口口
③③口口
口口口口 |----|
口口口口 |--③-|
63
口口口口 |--①-|
口口①① |----|
口口口口 |----|
口口口口 |----|
64
口口口口 |①---|
口口口口 |----|
口①②口 |②---|
口口口口 |----|
65
口口口口 |①---|
口口口口 |----|
口口口口 |②---|
口①②口 |----|
66
口口口口 |①---|
口口口口 |----|
口①②口 |②---|
口口口口 |----|
67
口口口口 |①---|
口口口口 |----|
口口口口 |②---|
口①②口 |----|
68
①口口① |①---|
②口口② |--②-|
③口口③ |----|
口口口口 |③---|
69
口口口口 |--①-|
口口口口 |----|
口口口口 |②---|
①②②① |----|
70
口口口口 |①---|
①①②② |②---|
口口口口
口口口口

口口口口
③③口口
口口口口 |----|
口口口口 |--③-|
71
口口口口 |--①-|
口口①① |----|
口口口口 |----|
口口口口 |----|
72
口口口口 |①---|
口①口口 |----|
口口①口 |----|
口口口口 |----|
73
口①②口 |①---|
口③口口 |②---|
口⑤④口 |③---|
口口口口 |④-⑤-|
74
口②②口 |----|
口①①口 |--①-|
口口口口 |----|
口口口口 |--②-|
75
①②口口 |----|
口口口口 |----|
口口口口 |①---|
口口口口 |②---|
76
口口口口 |①---|
口③②① |②---|
④口口口 |③---|
口口口口 |④---|
77
口口口口 |①---|
口口口口 |----|
口①②口 |②---|
口②①口 |----|
78
口口口口 |①---|
①②口① |----|
口口②口 |----|
口口口口 |--②-|
79
口口口口 |----|
口口口口 |----|
口口口口 |----|
口口口口 |----|
80
口口口口 |①---|
口③②① |②---|
④口口口 |③---|
口口口口 |④---|
81
口口口口 |①---|
口口口口 |----|
口①②口 |②---|
口②①口 |----|
82
口口口口 |①---|
①口口① |----|
口口口口 |----|
口口口口 |----|
83
口口口口 |①---|
口②口口 |----|
口①口口 |②---|
口口口口 |----|
84
口口口口 |①---|
口口②口 |----|
口口①口 |②---|
口口口口 |----|
85
口口口口 |①---|
口②口口 |----|
口①口口 |②---|
口口口口 |----|
86
口①①口 |①---|
②③④口 |②---|
口口口口 |③---|
口口口口 |④---|
87
口口口口 |①---|
口口口口 |②---|
口④③② |③---|
口①①口 |④---|
88
口口口口 |①---|
①口口① |----|
口②②口 |----|
口口口口 |--②-|

不確定度: 0

最終更新:2014年08月02日 00:14