恋愛観測
NU-KO

ADVANCED

Level: 7
BPM: 188
Notes: 525

1
口口口口 |----|
口口口口 |----|
口口口口 |----|
口口口口 |----|
2
①口口① |①---|
③③④④ |②---|
②口口② |③--④|
口⑤⑤口 |--⑤-|
3
口③④口 |--①-|
口③④口 |②---|
口①②口 |③--④|
⑤口口⑤ |--⑤-|
4
①口口① |----|
②口口② |----|
③口口③ |①--②|
口口口口 |--③-|
5
口口口口 |----|
口①口口 |----|
口口①口 |①---|
口口口口 |----|
6
口①②口 |①---|
⑥口口口 |②---|
口③⑤口 |③-④-|
口口④口 |⑤-⑥-|
7
口口口口 |--①-|
口①②口 |--②-|
口口口口 |----|
口口口口 |----|
8
①口口② |①-②-|
口③④口 |③-④-|
口⑤⑦口 |⑤-⑥-|
口⑧⑥口 |⑦-⑧-|
9
④口口④ |--①-|
①②③口 |②-③-|
口口口口 |----|
口口口口 |--④-|
10
口口口口 |----|
③口口口 |①---|
①③口① |②---|
口②②口 |--③-|
11
②口口② |----|
口口口① |--①-|
口口①口 |----|
口口口口 |--②-|
12
口口口口 |----|
③口口口 |①---|
①③口① |②---|
口②②口 |--③-|
13
②口口② |----|
口口口① |--①-|
口口①口 |----|
口口口口 |--②-|
14
口口口口 |----|
③②口口 |①---|
①③②① |②---|
口口口口 |--③-|
15
②口口② |----|
口口口① |--①-|
口口①口 |----|
口口口口 |--②-|
16
口口口口 |----|
口①①口 |--①-|
口①①口 |----|
口口口口 |----|
17
口口②口 |①---|
③口口口 |②---|
口口口④ |③---|
口①口口 |④---|
18
口口口口 |①-②-|
口⑦⑧口 |③-④-|
⑤③④⑥ |⑤-⑥-|
口①②口 |⑦-⑧-|
19
①③③① |①---|
口④口口 |--②-|
口④口口 |--③-|
②口口② |--④-|
20
口口口口 |--①-|
口口①② |--②-|
口口①② |----|
口口口口 |----|
21
③①①③ |①---|
口口④口 |--②-|
口口④口 |--③-|
②口口② |--④-|
22
口口口口 |--①-|
②①口口 |--②-|
②①口口 |----|
口口口口 |----|
23
③①①③ |①---|
口④口口 |--②-|
口口④口 |--③-|
②口口② |--④-|
24
③口口③ |--①-|
口口①口 |--②-|
④①口④ |--③-|
②口口② |--④-|
25
口口口口 |----|
口①口口 |①---|
口口②口 |②---|
口③口口 |③---|
26
②口口② |①---|
口口口口 |--②-|
①口口① |----|
口口口口 |----|
27
口口口口 |①---|
①②①② |②---|
②①②①
口口口口

口口口口
⑥口⑥口
口⑥口⑥ |③-④-|
③⑤④口 |⑤-⑥-|
28
口口口口 |--①-|
口①口① |----|
①口①口 |②---|
口③②口 |③---|
29
①口口① |①---|
口口口口 |②-③-|
口③②口 |----|
口口口口 |----|
30
口口⑤口 |①---|
①①②② |②---|
口口④口 |③---|
口③③口 |④-⑤-|
31
口②口口 |----|
③④⑤口 |①-②-|
口①口口 |--③-|
口口口口 |④-⑤-|
32
口口口口 |----|
口口③口 |--①-|
口口口口 |②---|
口②①口 |③---|
33
口口口口 |①---|
口口口口 |②-③-|
口③②口 |----|
①④④① |--④-|
34
口口口口 |----|
口口口口 |----|
口口口口 |①---|
①口口① |----|
35
口口口口 |①---|
①②①② |②---|
②①②①
口口口口

口口口口
⑥口⑥口
口⑥口⑥ |③-④-|
③⑤④口 |⑤-⑥-|
36
口口口口 |--①-|
口①口① |----|
①口①口 |②---|
口③②口 |③---|
37
①口口① |①---|
口口口口 |②-③-|
口③②口 |----|
口口口口 |----|
38
口口⑤口 |①---|
①②口③ |②---|
口口④口 |③---|
口口口口 |④-⑤-|
39
④②口④ |----|
口口口口 |①-②-|
口①口口 |----|
口③③口 |③-④-|
40
口口口口 |----|
①①②② |----|
口口口口 |①---|
口口口口 |②---|
41
④①①④ |①---|
口口口口 |②---|
②②③③ |③---|
口口口口 |④---|
42
口口口口 |①---|
口①②口 |----|
口口口口 |②---|
口①②口 |----|
43
口②④口 |①---|
口口口口 |②---|
口口③口 |③---|
①口口① |④---|
44
②口口④ |①---|
口口口口 |②---|
①口口③ |③---|
口口口口 |④---|
45
口②④口 |①---|
口口口口 |②---|
口①③口 |③---|
口口口口 |④---|
46
②口口④ |①---|
口口口口 |②---|
①口口③ |③---|
口口口口 |④---|
47
口口口口 |①---|
②口口④ |②---|
口①③口 |③---|
口口口口 |④---|
48
口口口口 |①---|
②口口④ |②---|
口①③口 |③---|
口口口口 |④---|
49
⑤口口⑤ |①---|
②口口④ |②---|
口口口口 |③---|
口①③口 |④-⑤-|
50
口口口口 |----|
口①①口 |①---|
口口口口 |--②-|
②口口② |----|
51
口口口口 |①-②-|
口口口口 |③-④-|
①②③④ |----|
口口口口 |----|
52
①④④① |①-②-|
②口口② |③-④-|
③口口③
口口口口

⑧口口⑧
口⑤⑤口
口⑥⑥口 |⑤-⑥-|
⑦口口⑦ |⑦-⑧-|
53
口口口口 |----|
口口口口 |----|
口①②口 |①---|
口口口口 |②---|
54
①④④① |①-②-|
②口口② |③-④-|
③口口③
口口口口

⑧口口⑧
口⑤⑤口
口⑥⑥口 |⑤-⑥-|
口⑦⑦口 |⑦-⑧-|
55
口口口口 |----|
口口口口 |----|
口①②口 |①---|
口口口口 |②---|
56
⑦口口⑧ |①-②-|
⑤口口⑥ |③-④-|
③口口④ |⑤-⑥-|
①口口② |⑦-⑧-|
57
口⑦④口 |①-②-|
⑤①⑧口 |③-④-|
口③口口 |⑤-⑥-|
口口②⑥ |⑦-⑧-|
58
口口④④ |①--②|
③口口⑤ |--③-|
②口口⑥ |④--⑤|
①①口口 |--⑥-|
59
口口④④ |①--②|
口③⑤口 |--③-|
口②⑥口 |④--⑤|
①①口口 |--⑥-|
60
①口口② |①---|
口③③口 |--②-|
口③③口 |----|
②口口① |③---|
61
①①口口 |①---|
口口口口 |----|
口口口口 |----|
口口①① |----|
62
口口口口 |①---|
①②①② |②---|
②①②①
口口口口

口口口口
③口③口
口③口③ |----|
口口口口 |--③-|
63
口口口口 |--①-|
口①口① |----|
①口①口 |----|
口口口口 |----|
64
①口口① |①---|
口口口口 |②-③-|
口③②口 |----|
口口口口 |----|
65
口口①口 |①---|
口口口口 |②---|
口②口口
口口口口

口口⑤口
口口④口
口口口口 |③---|
口口③口 |④-⑤-|
66
口口口口 |----|
口②口口 |①-②-|
口①④口 |----|
口口③口 |③-④-|
67
口口口口 |----|
口②①口 |----|
口口口口 |①---|
口口口口 |②---|
68
①口口① |①---|
口③口口 |--②-|
口口③口 |----|
口②②口 |③---|
69
口口口口 |--①-|
口口①口 |----|
口①口口 |②---|
②口口② |----|
70
口口口口 |①---|
①②①② |②---|
②①②①
口口口口

口口口口
⑥口⑥口
口⑥口⑥ |③-④-|
③⑤④口 |⑤-⑥-|
71
口口口口 |--①-|
口①口① |----|
①口①口 |②---|
口③②口 |③---|
72
①口口① |①---|
口口口口 |②-③-|
口③②口 |----|
口口口口 |----|
73
口口⑤口 |①---|
①②口③ |②---|
口口④口 |③---|
口口口口 |④-⑤-|
74
④②口④ |----|
口口口口 |①-②-|
口①口口 |----|
口③③口 |③-④-|
75
口口口口 |----|
①口口① |----|
②口口② |①---|
口口口口 |②---|
76
④①①④ |①---|
口口口口 |②---|
口口口口 |③---|
③②②③ |④---|
77
口口口口 |①---|
①②①② |----|
②①②① |②---|
口口口口 |----|
78
①①②② |①-②-|
④口口④ |--③-|
口⑤⑤口 |--④-|
口③③口 |--⑤-|
79
口口口口 |--①-|
口①①口 |--②-|
口口口口 |----|
②②②② |----|
80
④①①④ |①---|
口①①口 |②---|
口口口口 |③---|
②③③② |④---|
81
口口口口 |①---|
②①②① |----|
①②①② |②---|
口口口口 |----|
82
口口口口 |①---|
口口口口 |----|
口口口口 |----|
①口口① |----|
83
②口口④ |①---|
口口口口 |②---|
①口口③ |③---|
口口口口 |④---|
84
口②④口 |①---|
口口口口 |②---|
口①③口 |③---|
口口口口 |④---|
85
②口口④ |①---|
口口口口 |②---|
①口口③ |③---|
口口口口 |④---|
86
⑦口口⑦ |①-②-|
口⑥⑤口 |③-④-|
口④③口 |⑤-⑥-|
口②①口 |⑦---|
87
⑦口口⑦ |①-②-|
口⑥⑤口 |③-④-|
口④③口 |⑤-⑥-|
口②①口 |⑦---|
88
口口口口 |①---|
口口口口 |----|
①口口① |----|
口②②口 |--②-|

不確定度: 0

最終更新:2014年08月02日 00:14