リーゼントブルース
RIKI

BASIC

Level: 2
BPM: 142
Notes: 126

1
口口口口 |----|
口口口口 |----|
口口口口 |----|
口口口口 |----|
2
口口口口 |①---|
口①②口 |②---|
口③④口 |③---|
口口口口 |④---|
3
①口口口 |①---|
口②口口 |----|
口口口口 |②---|
口口口口 |----|
4
口口口口 |①---|
口口口口 |----|
口口①口 |②---|
口口口② |----|
5
口口口① |①---|
口口②口 |----|
口口口口 |②---|
口口口口 |----|
6
口口口口 |①---|
口口口口 |----|
口①口口 |②---|
②口口口 |----|
7
口①口口 |①---|
②口口口 |----|
口口口口 |②---|
口口口口 |----|
8
口口口口 |①---|
口口口口 |----|
①口口口 |②---|
口②口口 |----|
9
口口①口 |①---|
口口口② |----|
口口口口 |②---|
口口口口 |----|
10
口口口口 |①---|
口口口口 |----|
口口口① |②---|
口口②口 |----|
11
口口口口 |①---|
口口口口 |----|
口①①口 |----|
口口口口 |----|
12
口口口口 |----|
口①口口 |----|
口口口口 |①---|
口口口口 |----|
13
口口口口 |①---|
口口①口 |----|
口口口口 |----|
口口口口 |----|
14
口口口口 |①---|
口口口口 |----|
①口口口 |----|
口口口口 |----|
15
口口口口 |①---|
口口口口 |----|
口口口口 |----|
口口①口 |----|
16
口口口口 |----|
口口口口 |----|
口口口口 |①---|
①口口口 |----|
17
口口口口 |①---|
口口口口 |----|
口口①口 |----|
口口口口 |----|
18
口口口口 |①---|
口①①口 |----|
口口口口 |----|
口口口口 |----|
19
口口口① |①---|
口口口口 |----|
口口口口 |----|
口口口口 |----|
20
口口口口 |----|
口口①口 |----|
口口口口 |①---|
口口口口 |----|
21
口口口口 |①---|
口①口口 |----|
口口口口 |----|
口口口口 |----|
22
口口口口 |①---|
口口口口 |----|
口口口口 |----|
口①①口 |----|
23
口口口口 |①---|
口口口口 |----|
①口口① |----|
口口口口 |----|
24
口口口口 |①---|
口口口口 |----|
口口②口 |②---|
口①口口 |----|
25
口口口口 |①---|
口①口口 |----|
口口口口 |----|
口口口口 |----|
26
口口口口 |----|
口口口口 |----|
口口口口 |----|
口口口口 |----|
27
口口口口 |①---|
口口口口 |----|
①①口口 |----|
口口口口 |----|
28
口口口口 |①---|
口口口口 |----|
口口①① |----|
口口口口 |----|
29
口口口口 |①---|
口口口口 |----|
口②②口 |②---|
口①①口 |----|
30
口口口口 |①---|
口①①口 |----|
口口口口 |----|
口口口口 |----|
31
①①口口 |①---|
口口口口 |----|
口口口口 |----|
口口口口 |----|
32
口口①① |①---|
口口口口 |----|
口口口口 |----|
口口口口 |----|
33
口口口口 |①---|
②①①② |----|
口口口口 |②---|
口口口口 |----|
34
口口口口 |①---|
口口口口 |----|
口①①口 |----|
口口口口 |----|
35
口口口口 |①---|
口口②口 |----|
口口口口 |②---|
口口①口 |----|
36
口口口① |①---|
口口口② |②---|
口口口③ |③---|
口口口口 |----|
37
口口口口 |①---|
口②口口 |----|
口口口口 |②---|
口①口口 |----|
38
①口口口 |①---|
②口口口 |②---|
③口口口 |③---|
口口口口 |----|
39
口口①口 |①---|
口口口口 |----|
口口②口 |②---|
口口口口 |----|
40
口口口口 |①---|
口口口③ |②---|
口口口② |③---|
口口口① |----|
41
口①口口 |①---|
口口口口 |----|
口②口口 |②---|
口口口口 |----|
42
口口口口 |①---|
③口口口 |②---|
②口口口 |③---|
①口口口 |----|
43
口口口口 |①---|
口口②口 |----|
口口口口 |②---|
口口①口 |----|
44
口口口① |①---|
口口口② |②---|
口口口③ |③---|
口口口口 |----|
45
口口口口 |①---|
口②口口 |----|
口口口口 |②---|
口①口口 |----|
46
①口口口 |①---|
②口口口 |②---|
③口口口 |③---|
口口口口 |----|
47
口口①口 |①---|
口口口口 |----|
口口②口 |②---|
口口口口 |----|
48
口口口口 |①---|
口口口③ |②---|
口口口② |③---|
口口口① |----|
49
口①口口 |①---|
口口口口 |----|
口②口口 |②---|
口口口口 |----|
50
口口口口 |①---|
③口口口 |②---|
②口口口 |③---|
①口口口 |----|
51
①口口口 |①---|
口②口口 |----|
口口口口 |②---|
口口口口 |----|
52
口口口口 |①---|
口口口口 |----|
口口①口 |②---|
口口口② |----|
53
口口口① |①---|
口口②口 |----|
口口口口 |②---|
口口口口 |----|
54
口口口口 |①---|
口口口口 |----|
口①口口 |②---|
②口口口 |----|
55
口①口口 |①---|
②口口口 |----|
口口口口 |②---|
口口口口 |----|
56
口口口口 |①---|
口口口口 |----|
①口口口 |②---|
口②口口 |----|
57
口口①口 |①---|
口口口② |----|
口口口口 |②---|
口口口口 |----|
58
口口口口 |①---|
口口口口 |----|
口口口① |②---|
口口②口 |----|
59
口口口口 |①---|
口口口口 |----|
口②②口 |②---|
①口口① |----|
60
③口口③ |①---|
①②②① |----|
口口口口 |②---|
口口口口 |③---|

不確定度: 0

最終更新:2014年08月02日 00:13