Red Goose
Mutsuhiko Izumi

ADVANCED

Level: 8
BPM: 200
Notes: 743

1
口口口口 |----|
①②③口 |----|
口口口口 |--①-|
口口口口 |②-③-|
2
口③③口 |①---|
口口口① |--②-|
口②②口 |----|
口口口口 |③---|
3
口口口口 |①---|
①③口① |----|
②口③口 |②---|
口②口口 |③---|
4
口口①口 |①---|
口③③① |--②-|
口口口口 |----|
口②②口 |③---|
5
口②口口 |①---|
②口③口 |----|
①③口① |②---|
口口口口 |③---|
6
口②②口 |①---|
口口口口 |--②-|
口③③① |----|
口口①口 |③---|
7
口口口口 |①---|
①③口① |--②-|
②口③口 |----|
口②口口 |③---|
8
口口①② |①---|
口口③① |②---|
口④口口 |③---|
口口口口 |④---|
9
口口口口 |①---|
①口口口 |----|
口口口口 |----|
口口①口 |----|
10
口①口口 |①---|
口口口口 |----|
口口口① |----|
口口口口 |----|
11
口口口口 |①---|
①口⑤② |②---|
①④口② |--③-|
口口③口 |④-⑤-|
12
口口⑤口 |①---|
①④口② |②---|
①口③② |--③-|
口口口口 |④-⑤-|
13
口口口口 |①---|
口口⑤口 |②---|
①④口② |--③-|
①口③② |④-⑤-|
14
①口③② |①---|
①④口② |②---|
口口⑤口 |--③-|
口口口口 |④-⑤-|
15
口口口口 |①---|
①口⑤② |②---|
①④口② |--③-|
口口③口 |④-⑤-|
16
口口⑤口 |①---|
①④口② |②---|
①口③② |--③-|
口口口口 |④-⑤-|
17
口口口口 |①---|
口口⑤口 |②---|
①④口② |--③-|
①口③② |④-⑤-|
18
①口③② |①---|
①④口② |②---|
口口⑤口 |--③-|
口口口口 |④-⑤-|
19
①②口口 |①-②-|
口口③④ |③-④-|
⑤⑥口口 |⑤-⑥-|
口口⑦⑧ |⑦-⑧-|
20
口口①② |①-②-|
③④口口 |③-④-|
口口⑤⑥ |⑤-⑥-|
⑦⑧口口 |⑦-⑧-|
21
①②③④ |①-②-|
口⑤⑥⑦ |③-④-|
口口口口 |--⑤-|
口口口口 |⑥-⑦-|
22
口口口口 |①-②-|
口口口口 |③-④-|
①②③④ |--⑤-|
口⑤⑥⑦ |⑥-⑦-|
23
④③②① |①-②-|
⑦⑥⑤口 |③-④-|
口口口口 |--⑤-|
口口口口 |⑥-⑦-|
24
口口口口 |①-②-|
口口口口 |③-④-|
④③②① |--⑤-|
⑦⑥⑤口 |⑥-⑦-|
25
①②③④ |①-②-|
口⑤⑥⑦ |③-④-|
口口口口 |--⑤-|
口口口口 |⑥-⑦-|
26
口口口口 |①-②-|
口口口口 |③-④-|
①②③④ |--⑤-|
口⑤⑥⑦ |⑥-⑦-|
27
④③②① |①-②-|
⑦⑥⑤口 |③-④-|
口口口口 |--⑤-|
口口口口 |⑥-⑦-|
28
口口口口 |①-②-|
口口口口 |③-④-|
④③②① |--⑤-|
⑦⑥⑤口 |⑥-⑦-|
29
①②③④ |①-②-|
口⑤⑥⑦ |③-④-|
口口口口 |--⑤-|
口口口口 |⑥-⑦-|
30
口口口口 |①-②-|
口口口口 |③-④-|
①②③④ |--⑤-|
口⑤⑥⑦ |⑥-⑦-|
31
④③②① |①-②-|
⑦⑥⑤口 |③-④-|
口口口口 |--⑤-|
口口口口 |⑥-⑦-|
32
口口口口 |①-②-|
口口口口 |③-④-|
④③②① |--⑤-|
⑦⑥⑤口 |⑥-⑦-|
33
①②③④ |①-②-|
口⑤⑥⑦ |③-④-|
口口口口 |--⑤-|
口口口口 |⑥-⑦-|
34
口口口口 |①-②-|
口口口口 |③-④-|
①②③④ |--⑤-|
口⑤⑥⑦ |⑥-⑦-|
35
④③②① |①-②-|
⑦⑥⑤口 |③-④-|
口口口口 |--⑤-|
口口口口 |⑥-⑦-|
36
口口口口 |①-②-|
口口口口 |③-④-|
④③②① |--⑤-|
⑦⑥⑤口 |⑥-⑦-|
37
①⑥⑧② |①-②-|
口③④口 |③-④-|
⑤口口⑦ |⑤-⑥-|
口口口口 |⑦-⑧-|
38
口⑥⑧口 |①-②-|
口③④口 |③-④-|
⑤口口⑦ |⑤-⑥-|
①口口② |⑦-⑧-|
39
口⑥⑧口 |①-②-|
⑤口口⑦ |③-④-|
口②④口 |⑤-⑥-|
口①③口 |⑦-⑧-|
40
口口口口 |①-②-|
口口口口 |③-④-|
①②③④ |⑤-⑥-|
⑤⑥⑦⑧ |⑦-⑧-|
41
①⑥⑧② |①-②-|
口③④口 |③-④-|
⑤口口⑦ |⑤-⑥-|
口口口口 |⑦-⑧-|
42
口⑥⑧口 |①-②-|
口③④口 |③-④-|
⑤口口⑦ |⑤-⑥-|
①口口② |⑦-⑧-|
43
⑥口口⑧ |①-②-|
⑤口口⑦ |③-④-|
口②④口 |⑤-⑥-|
口①③口 |⑦-⑧-|
44
口⑥⑧口 |①-②-|
口⑤⑦口 |③-④-|
②口口④ |⑤-⑥-|
①口口③ |⑦-⑧-|
45
②⑥口① |①-②-|
②⑥口⑤ |③-④-|
④⑧口③ |⑤-⑥-|
④⑧口⑦ |⑦-⑧-|
46
口口②① |①-②-|
⑥⑥②⑤ |③-④-|
口口④③ |⑤-⑥-|
⑧⑧④⑦ |⑦-⑧-|
47
口①②口 |①②-③|
⑥口③⑦ |-④⑤-|
口④⑤口 |⑥-⑦-|
⑧口口⑨ |⑧-⑨-|
48
口①②口 |①②-③|
⑥口③⑦ |-④⑤-|
口④⑤口 |⑥-⑦-|
⑨口口⑧ |⑧-⑨-|
49
口①②口 |①②-③|
⑥口③⑦ |-④⑤-|
口④⑤口 |⑥-⑦-|
⑧口口⑨ |⑧-⑨-|
50
口①②口 |①②-③|
口⑥③⑦ |-④-⑤|
⑤口④口 |-⑥-⑦|
口⑧⑨口 |-⑧⑨-|
51
口①②口 |①②-③|
⑥口③⑦ |-④⑤-|
口④⑤口 |⑥-⑦-|
⑧口口⑨ |⑧-⑨-|
52
口①②口 |①②-③|
⑥口③⑦ |-④⑤-|
口④⑤口 |⑥-⑦-|
⑨口口⑧ |⑧-⑨-|
53
口①②口 |①②-③|
口⑥③⑦ |-④-⑤|
⑤口④口 |-⑥-⑦|
口⑧⑨口 |-⑧⑨-|
54
口①②口 |①②-③|
⑤口③口 |-④⑤-|
⑦口④⑥ |⑥-⑦-|
⑨口口⑧ |⑧-⑨-|
55
口①②口 |①②-③|
⑥口③⑦ |-④⑤-|
口④⑤口 |⑥-⑦-|
⑧口口⑨ |⑧-⑨-|
56
口①②口 |①②-③|
⑥口③⑦ |-④⑤-|
口④⑤口 |⑥-⑦-|
⑨口口⑧ |⑧-⑨-|
57
口①②口 |①②-③|
⑥口③⑦ |-④⑤-|
口④⑤口 |⑥-⑦-|
⑧口口⑨ |⑧-⑨-|
58
口①②口 |①②-③|
口⑥③⑦ |-④-⑤|
⑤口④口 |-⑥-⑦|
口⑧⑨口 |-⑧⑨-|
59
口①②口 |①②-③|
⑥口③⑦ |-④⑤-|
口④⑤口 |⑥-⑦-|
⑧口口⑨ |⑧-⑨-|
60
口①②口 |①②-③|
⑥口③⑦ |-④⑤-|
口④⑤口 |⑥-⑦-|
⑨口口⑧ |⑧-⑨-|
61
口①②口 |①②-③|
口⑥③⑦ |-④-⑤|
⑤口④口 |-⑥-⑦|
口⑧⑨口 |-⑧⑨-|
62
口①②口 |①②-③|
⑤口③口 |-④⑤-|
⑦口④⑥ |⑥-⑦-|
⑨口口⑧ |⑧-⑨-|
63
①⑥⑧② |①-②-|
口③④口 |③-④-|
⑤口口⑦ |⑤-⑥-|
口口口口 |⑦-⑧-|
64
口⑥⑧口 |①-②-|
口③④口 |③-④-|
⑤口口⑦ |⑤-⑥-|
①口口② |⑦-⑧-|
65
口⑥⑧口 |①-②-|
⑤口口⑦ |③-④-|
口②④口 |⑤-⑥-|
口①③口 |⑦-⑧-|
66
口口口口 |①-②-|
口口口口 |③-④-|
①②③④ |⑤-⑥-|
⑤⑥⑦⑧ |⑦-⑧-|
67
①⑥⑧② |①-②-|
口③④口 |③-④-|
⑤口口⑦ |⑤-⑥-|
口口口口 |⑦-⑧-|
68
口⑥⑧口 |①-②-|
口③④口 |③-④-|
⑤口口⑦ |⑤-⑥-|
①口口② |⑦-⑧-|
69
⑥口口⑧ |①-②-|
⑤口口⑦ |③-④-|
口②④口 |⑤-⑥-|
口①③口 |⑦-⑧-|
70
口⑥⑧口 |①-②-|
口⑤⑦口 |③-④-|
②口口④ |⑤-⑥-|
①口口③ |⑦-⑧-|
71
②⑥口① |①-②-|
②⑥口⑤ |③-④-|
④⑧口③ |⑤-⑥-|
④⑧口⑦ |⑦-⑧-|
72
口口②① |①-②-|
⑥⑥②⑤ |③-④-|
口口④③ |⑤-⑥-|
⑧⑧④⑦ |⑦-⑧-|
73
①②③④ |①-②-|
口⑤⑥⑦ |③-④-|
口口口口 |--⑤-|
口口口口 |⑥-⑦-|
74
口口口口 |①-②-|
口口口口 |③-④-|
①②③④ |--⑤-|
口⑤⑥⑦ |⑥-⑦-|
75
④③②① |①-②-|
⑦⑥⑤口 |③-④-|
①②口口 |--⑤-|
口口口口 |⑥-⑦-|
76
口口口口 |①-②-|
口口口口 |③-④-|
④③②① |--⑤-|
⑦⑥⑤口 |⑥-⑦-|
77
①②③④ |①-②-|
①⑤⑥⑦ |③-④-|
口口口口 |--⑤-|
口口口口 |⑥-⑦-|
78
口口口口 |①-②-|
口口口口 |③-④-|
①②③④ |--⑤-|
口⑤⑥⑦ |⑥-⑦-|
79
④③②① |①-②-|
⑦⑥⑤口 |③-④-|
①②口口 |--⑤-|
口口口口 |⑥-⑦-|
80
口口口口 |①-②-|
口口口口 |③-④-|
④③②① |--⑤-|
⑦⑥⑤口 |⑥-⑦-|
81
①②③④ |①-②-|
口⑤⑥⑦ |③-④-|
口口口口 |--⑤-|
口口口口 |⑥-⑦-|
82
口口口口 |①-②-|
口口口口 |③-④-|
①②③④ |--⑤-|
口⑤⑥⑦ |⑥-⑦-|
83
④③②① |①-②-|
⑦⑥⑤口 |③-④-|
口口口口 |--⑤-|
口口口口 |⑥-⑦-|
84
口口口口 |①-②-|
口口口口 |③-④-|
④③②① |--⑤-|
⑦⑥⑤口 |⑥-⑦-|
85
①②③④ |①-②-|
口⑤⑥⑦ |③-④-|
口口口口 |--⑤-|
口口口口 |⑥-⑦-|
86
口口口口 |①-②-|
口口口口 |③-④-|
①②③④ |--⑤-|
口⑤⑥⑦ |⑥-⑦-|
87
④③②① |①-②-|
⑦⑥⑤口 |③-④-|
口口口口 |--⑤-|
口口口口 |⑥-⑦-|
88
口口口口 |①-②-|
口口口口 |③-④-|
④③②① |--⑤-|
⑦⑥⑤口 |⑥-⑦-|
89
①②③④ |①-②-|
口⑤⑥⑦ |③-④-|
口口口口 |--⑤-|
口口口口 |⑥-⑦-|
90
口口口口 |①-②-|
口口口口 |③-④-|
①②③④ |--⑤-|
口⑤⑥⑦ |⑥-⑦-|
91
④③②① |①-②-|
⑦⑥⑤口 |③-④-|
口口口口 |--⑤-|
口口口口 |⑥-⑦-|
92
口口口口 |①-②-|
口口口口 |③-④-|
④③②① |--⑤-|
⑦⑥⑤口 |⑥-⑦-|
93
①②③④ |①-②-|
口⑤⑥⑦ |③-④-|
口口口口 |--⑤-|
口口口口 |⑥-⑦-|
94
口口口口 |①-②-|
口口口口 |③-④-|
①②③④ |--⑤-|
口⑤⑥⑦ |⑥-⑦-|
95
④③②① |①-②-|
⑦⑥⑤口 |③-④-|
口口口口 |--⑤-|
口口口口 |⑥-⑦-|
96
口口口口 |①-②-|
口口口口 |③-④-|
④③②① |--⑤-|
⑥口口⑤ |⑥---|
97
①②口口 |①-②-|
⑤⑥③④ |③-④-|
口口⑦⑧ |⑤-⑥-|
口口口口 |⑦-⑧-|
98
⑤⑥口口 |①-②-|
口口⑦⑧ |③-④-|
①②口口 |⑤-⑥-|
口口③④ |⑦-⑧-|
99
口口口口 |----|
口口口口 |----|
口①①口 |①---|
①口口① |----|


不确定度: 0

最終更新:2012年11月08日 18:31