リーゼントブルース
RIKI

ADVANCED

Level: 5
BPM: 142
Notes: 292

1
口口口口 |----|
口口口口 |----|
口口口口 |----|
口口口口 |----|
2
口④④口 |①---|
①口口② |②---|
①口口② |③---|
口③③口 |④---|
3
口口口① |①---|
口口②口 |②---|
口③口口 |③---|
④口口口 |④---|
4
①口口口 |①---|
口②口口 |②---|
口口③口 |③---|
口口口④ |④---|
5
口④口口 |①---|
③口口口 |②---|
②口口口 |③---|
口①口口 |④---|
6
口口④口 |①---|
口口口③ |②---|
口口口② |③---|
口口①口 |④---|
7
①口口口 |①---|
口②口口 |②---|
口口③口 |③---|
口口口④ |④---|
8
口口口① |①---|
口口②口 |②---|
口③口口 |③---|
④口口口 |④---|
9
口口④口 |①---|
口口口③ |②---|
口口口② |③---|
口口①口 |④---|
10
口④口口 |①---|
③口口口 |②---|
②口口口 |③---|
口①口口 |④---|
11
口口口口 |①---|
口口口口 |----|
口①①口 |----|
口口口口 |----|
12
口口口口 |----|
③口口③ |①---|
②口口② |②---|
①口口① |③---|
13
①口口① |①---|
口②口口 |----|
口口③口 |----|
口口口口 |②-③-|
14
口口口口 |①---|
口口口口 |----|
口③口口 |----|
口①②口 |②-③-|
15
口口口口 |①---|
口口①口 |----|
口口口口 |----|
口口口口 |----|
16
口口口口 |----|
口③口③ |①---|
②口②口 |②---|
口①口① |③---|
17
①口①口 |①---|
口②口口 |----|
口口③口 |----|
口口口口 |②-③-|
18
口口口口 |①---|
口口口口 |----|
口口口口 |----|
口①口口 |----|
19
口口口口 |①---|
口口口口 |----|
①口口① |----|
口口口口 |----|
20
口口口口 |----|
口③③口 |①---|
口②②口 |②---|
口①①口 |③---|
21
口①①口 |①---|
口口口口 |----|
口口口口 |----|
②口口② |②---|
22
①口口① |①---|
②口②口 |--②-|
口③口③ |----|
口口口口 |③---|
23
口口口口 |①---|
口口口口 |----|
口口口② |----|
①口①② |②---|
24
口口口④ |①---|
口③②④ |②---|
①③②口 |③---|
①口口口 |④---|
25
①口口口 |①---|
①口口口 |----|
口口口口 |②---|
②口口口 |----|
26
口口口口 |①---|
口口口口 |----|
口口口口 |②---|
口①②口 |----|
27
①①口口 |①---|
④口口口 |②---|
口口口口 |③---|
口③口② |④---|
28
口口④口 |①---|
口口口③ |②---|
口口口口 |③---|
①口②口 |④---|
29
①口口口 |①---|
口口②口 |②---|
口③口口 |③---|
口口④口 |④---|
30
口口③② |①---|
口口口口 |----|
口口口口 |②---|
口①口口 |③---|
31
口①口口 |①---|
口口口④ |②---|
口口口口 |③---|
②口③口 |④---|
32
口口口口 |①---|
②①①② |----|
③①①③ |②---|
口口口口 |③---|
33
口口口口 |①---|
口口口口 |----|
口口口口 |----|
①口口① |----|
34
③④口口 |①-②-|
口口口口 |----|
口口口口 |----|
口②①口 |③-④-|
35
口口①口 |①---|
口④③② |②-③-|
⑤口口口 |④---|
口⑥口口 |⑤-⑥-|
36
口口⑦⑥ |①-②-|
口口口口 |③-④-|
口⑤①③ |⑤---|
口口④② |⑥-⑦-|
37
口①口口 |①---|
②③④口 |②-③-|
口口口⑤ |④---|
口口⑥口 |⑤-⑥-|
38
口口口口 |①-②-|
口口口口 |③-④-|
③①⑤口 |⑤---|
②④⑦⑥ |⑥-⑦-|
39
口口口⑤ |①---|
口口⑥口 |②-③-|
②③④口 |④---|
口①口口 |⑤-⑥-|
40
③①⑤口 |①-②-|
②④口口 |③-④-|
口口口口 |⑤---|
⑥⑦口口 |⑥-⑦-|
41
口⑥口口 |①---|
⑤口口口 |②-③-|
口④③② |④---|
口口①口 |⑤-⑥-|
42
⑥⑦④② |①-②-|
口⑤①③ |③-④-|
口口口口 |⑤---|
口口口口 |⑥-⑦-|
43
口口①口 |①---|
口④③② |②-③-|
⑤口口口 |④---|
口⑥口口 |⑤-⑥-|
44
口口⑦⑥ |①-②-|
口口口口 |③-④-|
口⑤①③ |⑤---|
口口④② |⑥-⑦-|
45
口①口口 |①---|
②③④口 |②-③-|
口口口⑤ |④---|
口口⑥口 |⑤-⑥-|
46
口口口口 |①-②-|
口口口口 |③-④-|
③①⑤口 |⑤---|
②④⑦⑥ |⑥-⑦-|
47
口口口⑤ |①---|
口口⑥口 |②-③-|
②③④口 |④---|
口①口口 |⑤-⑥-|
48
③①⑤口 |①-②-|
②④口口 |③-④-|
口口口口 |⑤---|
⑥⑦口口 |⑥-⑦-|
49
口⑥口口 |①---|
⑤口口口 |②-③-|
口④③② |④---|
口口①口 |⑤-⑥-|
50
口口④② |①-②-|
口⑤①③ |③-④-|
口口口口 |⑤---|
口口口口 |----|
51
口口口① |①---|
口口②口 |②---|
口③口口 |③---|
④口口口 |④---|
52
①口口口 |①---|
口②口口 |②---|
口口③口 |③---|
口口口④ |④---|
53
口④口口 |①---|
③口口口 |②---|
②口口口 |③---|
口①口口 |④---|
54
口口④口 |①---|
口口口③ |②---|
口口口② |③---|
口口①口 |④---|
55
①口口口 |①---|
口②口口 |②---|
口口③口 |③---|
口口口④ |④---|
56
口口口① |①---|
口口②口 |②---|
口③口口 |③---|
④口口口 |④---|
57
口口④口 |①---|
口口口③ |②---|
口口口② |③---|
口口①口 |④---|
58
口④口口 |①---|
③口口口 |②---|
②口口口 |③---|
口①口口 |④---|
59
③口口③ |①---|
④②②④ |②---|
⑤①①⑤ |③-④-|
口口口口 |⑤---|
60
⑤①①⑥ |①-②-|
口②②口 |③-④-|
⑤③③⑥ |--⑤-|
口④④口 |⑥---|

不確定度: 0

最終更新:2014年08月02日 00:12