リーゼントブルース
RIKI

EXTREME

Level: 7
BPM: 142
Notes: 472

1
口口口口 |----|
口口口口 |----|
口口口口 |----|
口口口口 |----|
2
⑤①口口 |①②③④|
口口②⑥ |⑤⑥⑦⑧|
⑦③口口
口口④⑧

口⑬口⑫
口⑨口口
口口⑩口 |⑨⑩⑪⑫|
⑪口口口 |⑬---|
3
③口口口 |①---|
②④④口 |②---|
口①口① |③---|
口③②口 |④---|
4
口口口③ |①---|
口口口口 |②---|
①口①② |③---|
④②③④ |④---|
5
③口口口 |①---|
②④④口 |②---|
口①口① |③---|
口③②口 |④---|
6
口口口③ |①---|
口④④口 |②---|
①口①② |③---|
口②③口 |④---|
7
③口口口 |①---|
②④④口 |②---|
口①口① |③---|
口③②口 |④---|
8
口口口③ |①---|
口口口口 |②---|
①口①② |③---|
④②③④ |④---|
9
③口口口 |①---|
②④④口 |②---|
口①口① |③---|
口③②口 |④---|
10
口口口口 |①---|
口口口口 |----|
口①①口 |----|
口口口口 |----|
11
口口口④ |①---|
口口①口 |----|
⑤口口口 |②-③-|
②③口口 |④-⑤-|
12
口口②口 |--①-|
①口口② |②---|
口口口口
口口口口

口④口口
④③口口
口口③口 |③---|
口口口口 |④---|
13
口口口③ |①---|
④口①口 |②---|
口①口口 |----|
口口口② |③-④-|
14
口口口口 |①---|
口口③口 |②---|
④口口口 |----|
②①口口 |③-④-|
15
口口口② |①---|
口口口口 |②---|
⑥口口⑤ |③-④-|
③④口① |⑤-⑥-|
16
口口口口 |--①-|
①口口口 |②---|
口口口口
口②口②

口口口口
④口④口
口③③口 |③---|
口口口口 |④---|
17
①①口⑤ |①---|
口⑥口口 |②---|
口口口② |③-④-|
③④口口 |⑤-⑥-|
18
②口口口 |①---|
③口口④ |②---|
⑤口口⑥ |③-④-|
口口口① |⑤-⑥-|
19
口口口④ |①---|
口口①口 |----|
⑤口口口 |②-③-|
②③口口 |④-⑤-|
20
口口②口 |--①-|
①口口② |②---|
口口口口
口口口口

口④口口
④③口口
口口③口 |③---|
口口口口 |④---|
21
口口口口 |①---|
口口①口 |②---|
口①口口 |----|
口③③② |③---|
22
①口③① |①---|
口③口口 |--②-|
口②②口 |----|
口口口口 |③---|
23
口①⑤② |①---|
口口①口 |②---|
口⑤口口 |③-④-|
③④口口 |⑤---|
24
口②口口 |①---|
④①①④ |②---|
口口②口 |③---|
口③③口 |④---|
25
口口口⑤ |①---|
⑥口口口 |②---|
口①①② |③-④-|
③④口口 |⑤-⑥-|
26
口①①口 |①---|
口②②口 |②---|
口③③口 |③-④-|
⑤口口④ |⑤---|
27
口口①口 |①---|
口④②① |②---|
口②④③ |③---|
口口③④ |④---|
28
口①口口 |①---|
②③①口 |②---|
③②④口 |③---|
口④口口 |④---|
29
口④口④ |①---|
③口③口 |②---|
口②口② |③---|
①口口① |④---|
30
②口口口 |①---|
③①口① |----|
口口口口 |②---|
口口口口 |③---|
31
口口口口 |①---|
口口②口 |②---|
①②口② |----|
口口②口 |----|
32
②口口② |①---|
①①①① |----|
①①①口 |②---|
③口口③ |③---|
33
口④口口 |①---|
①口①③ |②---|
口①口① |③---|
口口②口 |④---|
34
口口口口 |①-②-|
①口②口 |----|
口口口口
①口②口

口④口④
口口口口
口口口口 |----|
③口③口 |③-④-|
35
③⑤③⑥ |①---|
⑤口⑥口 |②-③-|
④①④① |④---|
口②口② |⑤-⑥-|
36
口口口⑥ |①-②-|
口③⑦④ |③-④-|
③①④② |⑤---|
①⑤②⑤ |⑥-⑦-|
37
②口口口 |①---|
口③口口 |②-③-|
口口⑥口 |④---|
⑤④①口 |⑤-⑥-|
38
口①②口 |①-②-|
③口口④ |③-④-|
口口口口
口口口口

⑦口⑦口
口口口口
口⑤口口 |⑤---|
口⑥口⑥ |⑥-⑦-|
39
⑥③⑤③ |①---|
口⑥口⑤ |②-③-|
①④①④ |④---|
②口②口 |⑤-⑥-|
40
⑥口口口 |①-②-|
④⑦③口 |③-④-|
②④①③ |⑤---|
⑤②⑤① |⑥-⑦-|
41
口口口② |①---|
口口③口 |②-③-|
口口口口
口①口口

口口口口
口口口口
口口口口 |④---|
口⑤④⑥ |⑤-⑥-|
42
⑤⑦④⑦ |①-②-|
口③口口 |③-④-|
①口②口 |⑤---|
⑥口⑥口 |⑥-⑦-|
43
③⑤③⑥ |①---|
⑤口⑥口 |②-③-|
④①④① |④---|
口②口② |⑤-⑥-|
44
口口口⑥ |①-②-|
口③⑦④ |③-④-|
③①④② |⑤---|
①⑤②⑤ |⑥-⑦-|
45
②口口口 |①---|
口③口口 |②-③-|
口口⑥口 |④---|
⑤④①口 |⑤-⑥-|
46
口①②口 |①-②-|
③口口④ |③-④-|
口口口口
口口口口

⑦口⑦口
口口口口
口⑤口口 |⑤---|
口⑥口⑥ |⑥-⑦-|
47
⑥③⑤③ |①---|
口⑥口⑤ |②-③-|
①④①④ |④---|
②口②口 |⑤-⑥-|
48
⑥口口口 |①-②-|
④⑦③口 |③-④-|
②④①③ |⑤---|
⑤②⑤① |⑥-⑦-|
49
口口口② |①---|
口口③口 |②-③-|
口口口口
口①口口

口口口口
口口口口
口口口口 |④---|
口⑤④⑥ |⑤-⑥-|
50
⑤口④口 |①-②-|
口③口口 |③-④-|
①口②口 |⑤---|
口口口口 |----|
51
③口口口 |①---|
②④④口 |②---|
口①口① |③---|
口③②口 |④---|
52
口口口③ |①---|
口口口口 |②---|
①口①② |③---|
④②③④ |④---|
53
③口口口 |①---|
②④④口 |②---|
口①口① |③---|
口③②口 |④---|
54
口口口③ |①---|
口④④口 |②---|
①口①② |③---|
口②③口 |④---|
55
③口口口 |①---|
②④④口 |②---|
口①口① |③---|
口③②口 |④---|
56
口口口③ |①---|
口口口口 |②---|
①口①② |③---|
④②③④ |④---|
57
③口口口 |①---|
②④④口 |②---|
口①口① |③---|
口③②口 |④---|
58
口①口口 |①-②-|
口口口② |③-④-|
③口口口 |⑤---|
口⑤口④ |----|
59
①口①口 |①---|
③口③口 |②---|
口④口④ |③-④-|
⑤②⑤② |⑤---|
60
①口口① |①-②-|
③口口③ |③-④-|
口口口口
④②④②

口⑤⑤口
口⑤⑤口
⑥⑥⑥⑥ |--⑤-|
口⑥口⑥ |⑥---|

不確定度: 0

最終更新:2014年08月02日 00:12