Ray
源屋

BASIC

Level: 3
BPM: 175
Notes: 244

1
口口口口 |----|
口口口口 |----|
口口口口 |----|
口口口口 |----|
2
口口口口 |①---|
口①口口 |----|
口口口口 |----|
口口口口 |----|
3
口口口口 |①---|
口口口口 |----|
口①口口 |----|
口口口口 |----|
4
口口口口 |①---|
口口①口 |----|
口口②口 |②---|
口口口口 |----|
5
口口口口 |①---|
口口口口 |----|
①口口① |----|
口口口口 |----|
6
口口口口 |①---|
①②口口 |----|
口口口口 |②---|
口口口口 |----|
7
口口口口 |①---|
口口①口 |----|
口②②口 |②---|
口口口口 |----|
8
口口口口 |①---|
①②口口 |----|
口口口口 |②---|
口口口口 |----|
9
口口口口 |①---|
口口①口 |----|
口②②口 |②---|
口口口口 |----|
10
口口②① |①---|
口口口口 |----|
口口口口 |②---|
口口口口 |----|
11
口①口口 |①---|
口②②口 |----|
口口口口 |②---|
口口口口 |----|
12
口口②① |①---|
口口口口 |----|
口口口口 |②---|
口口口口 |----|
13
口口口口 |①---|
口①①口 |----|
口口口口 |----|
口口口口 |----|
14
口口口口 |①---|
口口口口 |----|
口口②口 |②---|
口口①口 |----|
15
口口口口 |①---|
口口口口 |----|
口②口口 |②---|
口①口口 |----|
16
口口口口 |①---|
②①①② |----|
口口口口 |②---|
口口口口 |----|
17
口口口口 |----|
口①①口 |----|
口口口口 |①---|
口口口口 |----|
18
①口②口 |①---|
口口口口 |----|
口口口口 |②---|
口口口口 |----|
19
口口口口 |①---|
①口②口 |----|
口口口口 |②---|
口口口口 |----|
20
口口口口 |①---|
口口口口 |----|
②①①② |②---|
口口口口 |----|
21
口口口口 |①---|
①口口① |----|
口口口口 |----|
口口口口 |----|
22
口口口口 |①---|
口口口口 |②---|
口③口口 |③---|
①口②口 |----|
23
口口口口 |①---|
②①①② |----|
口口口口 |②---|
口口口口 |----|
24
口口口口 |①---|
口③口④ |②---|
口①口② |③---|
口口口口 |④---|
25
口口口口 |①---|
口口口口 |----|
②①①② |②---|
口口口口 |----|
26
口口口口 |①---|
口①口口 |----|
口口②口 |②---|
口口口口 |----|
27
口口口口 |①---|
口口口口 |----|
口①口口 |②---|
口口②口 |----|
28
口口口口 |①---|
口口②口 |----|
口①口口 |②---|
口口口口 |----|
29
口口口口 |①---|
口口口口 |----|
①①①① |----|
口口口口 |----|
30
口口口口 |①---|
口口口口 |②---|
口口口口 |③---|
①②④③ |④---|
31
口口口口 |①---|
口口口口 |②---|
①②④③ |③---|
口口口口 |④---|
32
口口口口 |①---|
口①③口 |②---|
口口口口 |③---|
口②④口 |④---|
33
口口口口 |①---|
①口口① |----|
②口口② |②---|
口口口口 |----|
34
口口口口 |①---|
①②④③ |②---|
口口口口 |③---|
口口口口 |④---|
35
口口口口 |①---|
口口口口 |②---|
①②④③ |③---|
口口口口 |④---|
36
口①③口 |①---|
口口口口 |②---|
口②④口 |③---|
口口口口 |④---|
37
口口口口 |①---|
①②②① |----|
口口口口 |②---|
口口口口 |----|
38
口口口口 |①---|
口口口口 |②---|
口口口口 |③---|
①②④③ |④---|
39
口口口口 |①---|
口口口口 |②---|
①②④③ |③---|
口口口口 |④---|
40
口口口口 |①---|
口①③口 |②---|
口口口口 |③---|
口②④口 |④---|
41
口口口口 |①---|
口口口口 |----|
②口口② |②---|
①口口① |----|
42
口口口口 |①---|
①口口① |----|
口口口口 |----|
口口口口 |----|
43
口口口口 |①---|
口口口口 |②---|
口③④口 |③---|
口①②口 |④---|
44
口口口口 |①---|
②①①② |----|
口口口口 |②---|
口口口口 |----|
45
①①①① |①---|
口口口口 |----|
口口口口 |----|
口口口口 |----|
46
口口口口 |①---|
口①①口 |----|
口①①口 |----|
口口口口 |----|
47
口口口口 |①---|
口口口口 |----|
口口②口 |②---|
口①口口 |----|
48
口口口口 |①---|
口口口口 |----|
①口口口 |----|
口口口口 |----|
49
口口口口 |----|
口①口口 |----|
口口口口 |①---|
口口口口 |----|
50
口口口口 |①---|
口口口① |----|
口口口口 |----|
口口口口 |----|
51
口口口口 |①---|
口口口口 |----|
口①口口 |②---|
口口②口 |----|
52
口口口口 |①---|
口口口口 |----|
口口口口 |----|
①口口口 |----|
53
口口口口 |----|
口口口口 |----|
口口口口 |----|
口口口口 |----|
54
口口口口 |----|
口口口口 |----|
口口口口 |----|
口口口口 |----|
55
口口口口 |①---|
口口口口 |----|
口②口口 |②---|
口口①口 |----|
56
口口口口 |①---|
口口口口 |----|
口口口① |----|
口口口口 |----|
57
口口口口 |----|
口口口口 |----|
口①口口 |①---|
口口口口 |----|
58
口口口口 |①---|
口口口口 |----|
口口口① |----|
口口口口 |----|
59
口口口口 |①---|
①口②口 |----|
口口口口 |②---|
口口口口 |----|
60
口①口口 |①---|
口口口口 |----|
口口口口 |----|
口口口口 |----|
61
口口口口 |----|
口口口口 |----|
口口口口 |----|
口口口口 |----|
62
①②口① |①---|
口口④③ |②---|
口口口口 |③---|
口口口口 |④---|
63
口口口口 |①---|
口口口口 |②---|
①②口口 |③---|
③口口③ |----|
64
口口③口 |①---|
口①口口 |②---|
口口④口 |③---|
口②口口 |④---|
65
口口口口 |①---|
①口口① |----|
②口口② |②---|
口口口口 |----|
66
口口口口 |①---|
口①①口 |----|
口②②口 |②---|
口口口口 |----|
67
口口口口 |①---|
②口口② |----|
①口口① |②---|
口口口口 |----|
68
口①①口 |①---|
④②②④ |②---|
③口口③ |③---|
口口口口 |④---|
69
①①①① |①---|
口口口口 |----|
口口口口 |----|
口口口口 |----|
70
口口口口 |----|
口口口口 |①---|
口②③口 |②---|
①口口① |③---|
71
口口口口 |①---|
①②④③ |②---|
口口口口 |③---|
口口口口 |④---|
72
口①③口 |①---|
口口口口 |②---|
口②④口 |③---|
口口口口 |④---|
73
口口口口 |①---|
②口口② |----|
①口口① |②---|
口口口口 |----|
74
①口口① |①---|
口口口口 |----|
口口口口 |----|
口口口口 |----|
75
口口口口 |①---|
口口口口 |②---|
口③④口 |③---|
口①②口 |④---|
76
口口口口 |①---|
②①①② |----|
口口口口 |②---|
口口口口 |----|
77
①①①① |①---|
口口口口 |----|
口口口口 |----|
口口口口 |----|
78
口口口口 |①---|
口①①口 |----|
口①①口 |----|
口口口口 |----|
79
口口口口 |----|
口口口口 |----|
口口口口 |----|
口口口口 |----|
80
口口口口 |①---|
①②口口 |----|
口口口口 |②---|
口口口口 |----|
81
口口口口 |①---|
口口①口 |----|
口②②口 |②---|
口口口口 |----|
82
口口②① |①---|
口③③口 |----|
口口口口 |②---|
口口口口 |③---|
83
口口口口 |①---|
口③③口 |----|
①②口口 |②---|
口口口口 |③---|
84
口口口口 |①---|
口口口口 |----|
口口口口 |②---|
口①②口 |----|
85
口口口口 |①---|
口口口口 |----|
①口口① |----|
口口口口 |----|
86
口口口口 |①---|
口①①口 |----|
口①①口 |----|
口口口口 |----|

不確定度: 0

最終更新:2014年08月02日 00:11