Ray
源屋

ADVANCED

Level: 7
BPM: 175
Notes: 458

1
口口口口 |----|
口口口口 |----|
口口口口 |----|
口口口口 |----|
2
口口口口 |①---|
①①口口 |----|
②②口口 |②---|
口口口口 |----|
3
口口口口 |①---|
口口①① |----|
口口②② |②---|
口口口口 |----|
4
口口口口 |①---|
①①③③ |②---|
②②④④ |③---|
口口口口 |④---|
5
①口口① |①---|
口口口口 |----|
②口口口 |----|
②口口口 |②---|
6
口①口口 |①---|
口口③口 |②---|
口②口口 |③---|
口口④口 |④---|
7
⑤口口⑤ |①-②-|
④①口④ |--③-|
③口②③ |--④-|
口口口口 |--⑤-|
8
口①口口 |①---|
口口③口 |②---|
口②口口 |③---|
口口④口 |④---|
9
④口口③ |①-②-|
③口口⑤ |--③-|
②口④② |--④-|
①⑤口① |--⑤-|
10
口①口口 |①---|
口口③口 |②---|
口②口口 |③---|
口口④口 |④---|
11
⑤口③⑤ |①-②-|
④①口④ |--③-|
口口②口 |--④-|
口口口口 |--⑤-|
12
口①口口 |①---|
口口③口 |②---|
口②口口 |③---|
口口④口 |④---|
13
②口口② |①-②-|
①口口① |--③-|
④③③口 |----|
④口口口 |④---|
14
①①①① |①---|
口口③口 |②---|
口口口口 |③---|
口口②口 |----|
15
口口口口 |①---|
口②口口 |②---|
口④口③ |③---|
口①口口 |④---|
16
①口②口 |①---|
口③③口 |②---|
口口口口 |③---|
口口口口 |----|
17
口口口口 |----|
①①口口 |----|
口口口口 |①---|
口口口口 |----|
18
口口口口 |①---|
口口口口 |----|
口口口口 |----|
①①口口 |----|
19
口口口口 |----|
口口口口 |----|
口口①① |①---|
口口口口 |----|
20
口口①① |①---|
口口口口 |----|
②口口② |②---|
口口口口 |----|
21
口口口口 |----|
口口口口 |----|
口口口口 |----|
①口口① |①---|
22
口①口口 |①---|
口③③口 |②---|
口口②口 |③---|
口口口口 |----|
23
口口口口 |①---|
口口③口 |----|
①口口口 |②---|
口口口② |③---|
24
口口口口 |①---|
口③口② |----|
口①口口 |②---|
口口口口 |③---|
25
口口口口 |①---|
②口口② |----|
口口①口 |②---|
口口口口 |----|
26
口①口口 |①---|
口②②口 |----|
口口口口 |②---|
口口口口 |----|
27
口口口口 |①---|
口口口口 |----|
口③③① |②---|
口②②口 |③---|
28
②口口② |①---|
口①①口 |----|
口口口口 |②---|
口口口口 |----|
29
口口口口 |①---|
口口口口 |----|
②口口② |----|
口①①口 |②---|
30
①①口口 |①---|
口口口口 |②-③-|
口口口口
③③②②

⑤口④④
口⑤口口
口口口口 |--④-|
口口口口 |--⑤-|
31
④④口口 |--①-|
口口①① |②-③-|
②口③③ |----|
口②口口 |--④-|
32
口口③③ |①---|
口口口口 |②-③-|
口口口口
②②①①

口口口口
④⑤口口
口口口⑥ |--④-|
口口⑥口 |⑤-⑥-|
33
③③口② |--①-|
口口②口 |②-③-|
①①口口 |----|
口口口口 |----|
34
③③口② |①---|
口口口口 |②-③-|
④口①① |--④-|
⑥⑥⑤⑤ |⑤-⑥-|
35
口口①口 |----|
②口口口 |--①-|
口④③口 |--②-|
口口口口 |③-④-|
36
③口③口 |----|
口口①口 |--①-|
②口口口 |----|
口口口口 |②-③-|
37
口口口口 |--①-|
口⑤⑥口 |②-③-|
④②①口 |--④-|
口③口③ |⑤-⑥-|
38
①①口口 |①---|
口口口口 |②-③-|
口口口口
③③②②

⑤口④④
口⑤口口
口口口口 |--④-|
口口口口 |--⑤-|
39
④④口口 |--①-|
口口①① |②-③-|
②口③③ |----|
口②口口 |--④-|
40
口口③③ |①---|
口口口口 |②-③-|
口口口口
②②①①

⑥口口口
口口⑤⑥
⑥④口口 |--④-|
口口口⑥ |⑤-⑥-|
41
口⑥口③ |--①-|
③①⑤口 |②-③-|
⑥④②③ |--④-|
③口口口 |⑤-⑥-|
42
口口口口 |①---|
口口口① |----|
口口口口 |----|
口③①② |②-③-|
43
口①口口 |--①-|
⑤③④⑤ |--②-|
口口②口 |--③-|
口口口口 |④-⑤-|
44
口口①① |----|
口②口口 |--①-|
③口口③ |----|
口口口口 |②-③-|
45
⑥口口⑥ |--①-|
⑥④⑤⑥ |②-③-|
口①②口 |--④-|
③口口③ |⑤-⑥-|
46
口口口口 |----|
口口口口 |----|
①口口口 |----|
口口口口 |①---|
47
口口口口 |①---|
口口口口 |----|
口①口② |②---|
口口口口 |----|
48
口口口口 |①---|
口口口口 |----|
口口口口 |----|
口①口口 |----|
49
口口口口 |----|
口口①口 |----|
口口口口 |①---|
口口口口 |----|
50
口口口口 |①---|
①口口口 |----|
口口口② |----|
口口口口 |②---|
51
口口口口 |①---|
口口口口 |----|
②口①口 |②---|
口口口口 |----|
52
口口口口 |①---|
口口口口 |----|
口口口口 |----|
口口①口 |----|
53
口口口口 |----|
口口口口 |----|
口口口口 |----|
口口口口 |----|
54
口口口口 |----|
①口口口 |----|
口口口口 |----|
口口口口 |①---|
55
口口口口 |①---|
口①口口 |----|
口口口② |②---|
口口口口 |----|
56
口口口口 |①---|
口口口口 |----|
口①口口 |----|
口口口口 |----|
57
口口口口 |----|
口口口① |----|
口口口口 |①---|
口口口口 |----|
58
口口口口 |①---|
口①②口 |----|
口口口口 |----|
口口口口 |②---|
59
口口口② |①---|
口①口口 |----|
口口口口 |②---|
口口口口 |----|
60
口①口口 |①---|
口口口口 |----|
口口口口 |----|
口口口口 |----|
61
口口口口 |----|
口①①口 |----|
口①①口 |----|
口口口口 |①---|
62
①①口口 |①---|
口口口口 |----|
口口口口 |②---|
口口②② |----|
63
口口①① |①---|
口口口口 |----|
口口口口 |②---|
②②口口 |----|
64
口口口口 |①---|
①①口口 |----|
口口②② |②---|
口口口口 |----|
65
口口口口 |①---|
口口②② |----|
口口口口 |②---|
①①口口 |----|
66
①①口④ |①---|
②口口③ |②---|
③口口② |③---|
④口①① |④---|
67
①①口口 |①---|
②④④③ |②---|
③口口② |③---|
口口①① |④---|
68
①①③③ |①---|
口④④口 |②---|
口②②口 |③---|
③③①① |④---|
69
口口口口 |①---|
①口口① |----|
①口口① |----|
口口口口 |----|
70
⑤口④④ |①---|
①⑤口① |②-③-|
③③口口 |--④-|
②②②② |--⑤-|
71
④④口口 |--①-|
口口①① |②-③-|
②口③③ |----|
口②口口 |--④-|
72
口口①① |①---|
口口③③ |②-③-|
②②口口 |--④-|
⑥④⑤⑥ |⑤-⑥-|
73
口口口口 |--①-|
②④④② |--②-|
①③③① |--③-|
口口口口 |④---|
74
①①①① |①---|
口③②口 |----|
口口口口 |----|
口口口口 |②-③-|
75
口口①口 |--①-|
⑤口口⑤ |--②-|
口③②口 |--③-|
口口④口 |④-⑤-|
76
口口①① |----|
②口口口 |--①-|
③口口③ |----|
口口口口 |②-③-|
77
⑥口口⑥ |--①-|
④④⑤⑤ |②-③-|
⑥口①⑥ |--④-|
③口②③ |⑤-⑥-|
78
口①④⑧ |①-②-|
⑤口口口 |③-④-|
口③⑥口 |⑤-⑥-|
口⑦②口 |⑦-⑧-|
79
⑥口④⑥ |①-②-|
⑤①口⑤ |③-④-|
口③口口 |--⑤-|
口口②口 |--⑥-|
80
口①口口 |①-②-|
⑤⑦④口 |③-④-|
口③口⑥ |⑤-⑥-|
⑧口②⑧ |⑦-⑧-|
81
④口③② |--①-|
②口口① |--②-|
①口口口 |--③-|
口③口④ |--④-|
82
口①口口 |①-②-|
⑤口④口 |③-④-|
⑦③⑥⑦ |⑤-⑥-|
口口②口 |⑦---|
83
⑥口④⑥ |①-②-|
⑤①口⑤ |③-④-|
口③口口 |--⑤-|
口口②口 |--⑥-|
84
口①④口 |①-②-|
口⑤口口 |③-④-|
口③⑧⑥ |⑤-⑥-|
⑦口②口 |⑦-⑧-|
85
口⑤⑤口 |①-②-|
口口②④ |③-④-|
①③口口 |----|
口口口口 |⑤---|
86
口口口口 |①---|
口口口口 |----|
口口口口 |----|
①①①① |----|

不確定度: 0

最終更新:2014年08月02日 00:10