LANA - キロクノカケラ (sasakure.UK Framework Remix) -
TOMOSUKE×Jazzin'park

BASIC

Level: 3
BPM: 200
Notes: 202

1
口口口口 |----|
口①口口 |----|
口口口口 |----|
口口口口 |①---|
2
口口口口 |①---|
口口①口 |----|
口口口口 |----|
口口口口 |----|
3
口口口口 |----|
口口口口 |----|
口①口口 |----|
口口口口 |①---|
4
口口口口 |①---|
口口口口 |----|
口口①口 |----|
口口口口 |----|
5
口口口口 |①---|
口②口口 |----|
口口口口 |----|
口口①口 |②---|
6
口口口口 |①---|
口口①口 |----|
口口口口 |----|
口口口口 |----|
7
口口口口 |----|
口口口口 |----|
口口口口 |----|
口口口口 |----|
8
口①①口 |①---|
口口口口 |----|
口口口口 |----|
口口口口 |----|
9
口口口口 |①---|
①口口① |----|
口口口口 |----|
口口口口 |----|
10
口口口口 |①---|
口口口口 |----|
口①②口 |②---|
口口口口 |----|
11
口口口口 |①---|
口口口口 |----|
口口口① |----|
口口口口 |----|
12
口口口口 |①---|
口口口口 |----|
口口口口 |②---|
口②①口 |----|
13
口口口口 |①---|
口口口口 |----|
口口口口 |----|
①口口口 |----|
14
口口口口 |①---|
口口口口 |----|
口①①口 |----|
口口口口 |----|
15
口口口口 |①---|
口①①口 |----|
口口口口 |----|
口口口口 |----|
16
①口口① |①---|
口口口口 |----|
口口口口 |----|
口口口口 |----|
17
口口口口 |①---|
①口口① |----|
口口口口 |----|
口口口口 |----|
18
口口口口 |①---|
口口口口 |②---|
口口口口 |----|
口①②口 |----|
19
口口口口 |----|
口口口口 |----|
口口口口 |----|
口口口口 |----|
20
口口口口 |①---|
口口口口 |②---|
①口口② |----|
口口口口 |----|
21
口口口口 |----|
口口口口 |----|
口口口口 |----|
口口口口 |----|
22
口口口口 |①---|
口口口口 |②---|
口①②口 |----|
口口口口 |----|
23
口口口口 |----|
口口口口 |----|
口口口口 |----|
口口口口 |----|
24
口口口口 |①---|
口口口口 |②---|
口口口口 |----|
①口口② |----|
25
口口口口 |----|
口口口口 |----|
口①口口 |----|
口口口口 |①---|
26
口口口口 |①---|
口口口口 |----|
口口①口 |----|
口口口口 |----|
27
口口口口 |----|
口①口口 |----|
口口口口 |----|
口口口口 |①---|
28
口口口口 |①---|
口口①口 |----|
口口口口 |----|
口口口口 |----|
29
口口①口 |①---|
②口口口 |----|
口口口口 |----|
口口口口 |②---|
30
口口口口 |①---|
口口口① |----|
口口口口 |----|
口口口口 |----|
31
口口口口 |----|
口口口口 |----|
口口口口 |----|
口口口口 |----|
32
口①①口 |①---|
口口口口 |----|
口口口口 |----|
口口口口 |----|
33
口口口口 |①---|
口①①口 |----|
口口口口 |----|
口口口口 |----|
34
口口口口 |①---|
口口口口 |②---|
①②③口 |③---|
口口口口 |----|
35
口口口口 |①---|
口①口口 |----|
口口口口 |----|
口口口口 |----|
36
口口口口 |①---|
口口口口 |②---|
口口口口 |③---|
口③②① |----|
37
口口口口 |①---|
口口①口 |----|
口口口口 |----|
口口口口 |----|
38
口口口口 |①---|
口口口口 |----|
①口口口 |----|
口口口口 |----|
39
口口口口 |①---|
口口口口 |----|
口口口① |----|
口口口口 |----|
40
①口口① |①---|
口②②口 |----|
口口口口 |②---|
口口口口 |----|
41
口口口口 |①---|
口口口口 |----|
口①①口 |②---|
口②②口 |----|
42
口口口口 |①---|
口口口口 |----|
口②口口 |②---|
①口口口 |----|
43
口口②② |①---|
口口①口 |----|
口口口口 |②---|
口口口口 |----|
44
口口口口 |①---|
口口口口 |----|
口口②口 |②---|
口口口① |----|
45
②②口口 |①---|
口①口口 |----|
口口口口 |②---|
口口口口 |----|
46
口口口口 |①---|
口口口口 |----|
口口②口 |②---|
口①口口 |----|
47
口口②② |①---|
口①口口 |----|
口口口口 |②---|
口口口口 |----|
48
口口口口 |①---|
口口口口 |----|
口②口口 |②---|
口口①口 |----|
49
②②口口 |①---|
口口①口 |----|
口口口口 |②---|
口口口口 |----|
50
口口口口 |①---|
口②口口 |----|
口口①口 |②---|
口口口口 |----|
51
口③②① |①---|
口口口口 |②---|
口口口口 |③---|
口口口口 |----|
52
口口口口 |①---|
口口①口 |----|
口②口口 |②---|
口口口口 |----|
53
口口口口 |①---|
口口口口 |②---|
口口口口 |③---|
口③②① |----|
54
口口口口 |①---|
口口口口 |----|
口①①口 |----|
口口口口 |----|
55
口口口口 |①---|
口①①口 |----|
口口口口 |----|
口口口口 |----|
56
口口口口 |----|
口口口口 |----|
口口口口 |----|
口口口口 |----|
57
②口口② |①---|
口口口口 |----|
口①①口 |②---|
口口口口 |----|
58
口口口口 |①---|
口①①口 |----|
②③口口 |②---|
口口口口 |③---|
59
口口口口 |①---|
口口口口 |----|
口口①口 |②---|
口口③② |③---|
60
口口口口 |①---|
口口口口 |----|
口口②口 |----|
口①口口 |②---|
61
口口口口 |①---|
②②口口 |----|
口①口口 |②---|
口口口口 |----|
62
①①口口 |①---|
口口②② |----|
口口口口 |②---|
口口口口 |----|
63
口口①① |①---|
口口口口 |----|
口②②口 |②---|
口口口口 |----|
64
口口口口 |①---|
口①①口 |----|
口口口口 |----|
口②口口 |②---|
65
②②口口 |①---|
口口口口 |----|
口口口口 |②---|
口口①口 |----|
66
口口②② |①---|
①①口口 |----|
口口口口 |②---|
口口口口 |----|
67
口口口口 |①---|
口口①① |----|
口口口口 |----|
口②口口 |②---|
68
口④③口 |①---|
口②口口 |②---|
口口①口 |③---|
口口口口 |④---|
69
口口口口 |①---|
口口①口 |----|
口口口口 |----|
口口口口 |----|
70
口口口口 |①---|
口口口口 |----|
口口口口 |----|
①①口口 |----|
71
口口口口 |①---|
口口口口 |----|
口口①① |----|
口口口口 |----|
72
口口口口 |①---|
①口口② |----|
口口口口 |②---|
口口口口 |----|
73
口口口口 |①---|
口①①口 |----|
口口口口 |----|
口口口口 |----|
74
口口口口 |①---|
口①①口 |----|
②③口口 |②---|
口口口口 |③---|
75
口口口口 |①---|
口口口口 |----|
口口①口 |②---|
口口③② |③---|
76
口口口口 |①---|
口口口口 |----|
口口②口 |----|
口①口口 |②---|
77
口口口口 |①---|
②②口口 |----|
口①口口 |②---|
口口口口 |----|
78
①①口口 |①---|
口口②② |----|
口口口口 |②---|
口口口口 |----|
79
口口①① |①---|
口口口口 |----|
口②②口 |②---|
口口口口 |----|
80
口口口口 |①---|
口①①口 |----|
口口口口 |----|
口②口口 |②---|
81
②②口口 |①---|
口口口口 |----|
口口口口 |②---|
口口①口 |----|
82
口口②② |①---|
①①口口 |----|
口口口口 |②---|
口口口口 |----|
83
口口口口 |①---|
口口①① |----|
口口口口 |----|
口②口口 |②---|
84
口④③口 |①---|
口②口口 |②---|
口口①口 |③---|
口口口口 |④---|
85
口口口口 |①---|
口口①口 |----|
口口口口 |----|
口口口口 |----|
86
口口口口 |①---|
口口口口 |----|
口口口口 |----|
①①口口 |----|
87
口口口口 |①---|
口口口口 |----|
口口①① |----|
口口口口 |----|
88
口口口口 |①---|
①口口② |----|
口口口口 |②---|
口口口口 |----|
89
口口口口 |①---|
口①①口 |----|
口口口口 |----|
口口口口 |----|
90
①①①① |①---|
口口口口 |----|
口口口口 |----|
口口口口 |----|
91
口口口口 |----|
口口口口 |----|
口口口口 |----|
口口口口 |----|
92
口口口口 |①---|
口①①① |----|
口口口口 |----|
口口口口 |----|
93
口口口口 |----|
口口口口 |----|
口口口口 |----|
口口口口 |----|
94
口口口口 |①---|
口口口口 |----|
口口①① |----|
口口口口 |----|
95
口口口口 |----|
口口口口 |----|
口口口口 |----|
口口口口 |----|
96
口口口口 |①---|
口口口口 |----|
口口口口 |----|
口口口① |----|

不確定度: 0

最終更新:2014年08月02日 00:10